<?xml version="1.0" standalone="no"?>
<!DOCTYPE svg PUBLIC "-//W3C//DTD SVG 1.1//EN" "http://www.w3.org/Graphics/SVG/1.1/DTD/svg11.dtd" >
<svg xmlns="http://www.w3.org/2000/svg">
<metadata></metadata>
<defs>
<font id="encode_sans_compressedregular" horiz-adv-x="1128" >
<font-face units-per-em="2048" ascent="1638" descent="-410" />
<missing-glyph horiz-adv-x="397" />
<glyph unicode="&#xfb01;" horiz-adv-x="991" d="M31 977v129h153v80q0 129 19.5 215t64.5 140t121 81t191 37l6 -121q-76 -8 -125 -26.5t-77 -57.5t-39 -101.5t-11 -158.5v-88h205v-129h-205v-977h-150v977h-153zM690 1454q0 94 96 94q100 0 101 -94q-1 -98 -101 -98q-96 0 -96 98zM713 0v1106h149v-1106h-149z" />
<glyph unicode="&#xfb02;" horiz-adv-x="993" d="M31 977v129h153v80q0 129 19.5 215t64.5 140t121 81t191 37l6 -121q-76 -8 -125 -26.5t-77 -57.5t-39 -101.5t-11 -158.5v-88h205v-129h-205v-977h-150v977h-153zM713 0v1655h149v-1655h-149z" />
<glyph unicode="&#xfb03;" horiz-adv-x="1538" d="M31 977v129h153v80q0 129 19.5 215t64.5 140t121 81t191 37l6 -121q-76 -8 -125 -26.5t-77 -57.5t-39 -101.5t-11 -158.5v-88h205v-129h-205v-977h-150v977h-153zM578 977v129h153v80q0 129 19.5 215t64.5 140t121 81t190 37l7 -121q-76 -8 -125.5 -26.5t-77 -57.5 t-38.5 -101.5t-11 -158.5v-88h204v-129h-204v-977h-150v977h-153zM1237 1454q0 94 96 94q100 0 101 -94q-1 -98 -101 -98q-96 0 -96 98zM1260 0v1106h149v-1106h-149z" />
<glyph unicode="&#xfb04;" horiz-adv-x="1540" d="M31 977v129h153v80q0 129 19.5 215t64.5 140t121 81t191 37l6 -121q-76 -8 -125 -26.5t-77 -57.5t-39 -101.5t-11 -158.5v-88h205v-129h-205v-977h-150v977h-153zM578 977v129h153v80q0 129 19.5 215t64.5 140t121 81t190 37l7 -121q-76 -8 -125.5 -26.5t-77 -57.5 t-38.5 -101.5t-11 -158.5v-88h204v-129h-204v-977h-150v977h-153zM1260 0v1655h149v-1655h-149z" />
<glyph horiz-adv-x="0" />
<glyph unicode="&#xd;" horiz-adv-x="567" />
<glyph horiz-adv-x="0" />
<glyph horiz-adv-x="0" />
<glyph unicode=" "  horiz-adv-x="397" />
<glyph unicode="&#x09;" horiz-adv-x="397" />
<glyph unicode="&#xa0;" horiz-adv-x="397" />
<glyph unicode="!" horiz-adv-x="440" d="M127 100q0 47 25.5 73t72.5 26t74 -27t27 -72q0 -47 -27 -71.5t-74 -24.5t-72.5 24.5t-25.5 71.5zM141 1495v21h156v-21l-29 -1100v-28h-96v28z" />
<glyph unicode="&#x22;" horiz-adv-x="636" d="M117 983v672h127v-8l-49 -664h-78zM416 983v672h127v-8l-49 -664h-78z" />
<glyph unicode="#" horiz-adv-x="980" d="M86 477v111h158l28 340h-186v110h195l38 478h117l-39 -478h209l41 478h117l-39 -478h170v-110h-178l-29 -340h205v-111h-213l-39 -477h-119l39 477h-209l-39 -477h-116l39 477h-150zM360 588h209l29 340h-209z" />
<glyph unicode="$" horiz-adv-x="968" d="M70 43l14 133q29 -14 74 -26.5t95 -21.5t101.5 -15.5t94.5 -6.5q145 0 224 72t79 205q0 57 -19.5 102t-57.5 82t-96.5 70t-138.5 65q-88 35 -153.5 73t-108.5 87t-64.5 112.5t-21.5 149.5q0 170 96.5 278.5t262.5 131.5v278h127v-274q63 -4 129.5 -13t142.5 -28l-10 -131 q-92 23 -167 32t-132 9q-135 0 -215 -77t-80 -206q0 -55 17.5 -96t54 -74.5t93 -64.5t134.5 -62q92 -39 159.5 -79.5t111.5 -92t64.5 -117t20.5 -151.5q0 -166 -83 -269.5t-232 -131.5v-283h-125v270q-45 0 -97.5 5.5t-104.5 14.5t-101 21.5t-88 28.5z" />
<glyph unicode="%" horiz-adv-x="1646" d="M70 1059q0 236 78.5 356.5t232.5 120.5t232.5 -121t78.5 -356q0 -236 -78.5 -356.5t-232.5 -120.5t-232.5 120.5t-78.5 356.5zM190 1059q1 -365 191 -365q188 0 188 365q0 362 -188 362q-190 0 -191 -362zM485 0l533 1516h131l-533 -1516h-131zM954 449q0 236 80 357.5 t236 121.5q154 0 232.5 -122t78.5 -357q0 -236 -78.5 -356t-232.5 -120q-315 0 -316 476zM1077 449q0 -363 193 -363q186 0 186 363q0 365 -186 364q-193 0 -193 -364z" />
<glyph unicode="&#x26;" horiz-adv-x="1222" d="M86 422q0 141 58.5 241.5t170.5 153.5q-51 76 -72.5 154t-21.5 174q0 195 98.5 295t290.5 100q72 0 144.5 -17.5t165.5 -56.5v-12l-27 -111h-10q-152 68 -265 68q-252 0 -251 -281q0 -74 20.5 -138t63.5 -124.5t112.5 -121t167.5 -128.5l195 -133q8 47 12 101.5t4 113.5 v138l135 6v-144q0 -168 -30 -297l147 -98v-12l-57 -115h-13l-123 84q-126 -285 -456 -285q-215 0 -337 118t-122 327zM233 428q0 -150 85 -237t233 -87q252 0 340 238l-223 156q-178 123 -275 225q-160 -90 -160 -295z" />
<glyph unicode="'" horiz-adv-x="337" d="M117 983v672h127v-8l-49 -664h-78z" />
<glyph unicode="(" horiz-adv-x="552" d="M76 725q0 287 80 556t233 497h133v-9q-152 -223 -233.5 -489t-81.5 -555q0 -291 82 -556t233 -488v-9h-133q-154 227 -233.5 496.5t-79.5 556.5z" />
<glyph unicode=")" horiz-adv-x="552" d="M31 -319q152 223 232.5 488t80.5 556q0 289 -81 555t-232 489v9h133q154 -227 233.5 -496.5t79.5 -556.5t-80 -556t-233 -497h-133v9z" />
<glyph unicode="*" horiz-adv-x="972" d="M76 1376l35 107l157 -51l193 -97l-31 215v166h113v-166l-33 -213l192 95l160 51l35 -107l-160 -51l-211 -35l152 -155l96 -136l-90 -65l-98 135l-101 195l-100 -195l-98 -135l-90 65l96 136l151 155l-211 35z" />
<glyph unicode="+" horiz-adv-x="972" d="M86 698v119h340v348h121v-348h342v-119h-342v-348h-121v348h-340z" />
<glyph unicode="," horiz-adv-x="399" d="M41 -297l92 485h156l-133 -505z" />
<glyph unicode="-" horiz-adv-x="677" d="M113 512v123h452v-123h-452z" />
<glyph unicode="." horiz-adv-x="407" d="M104 92q0 100 99 101q102 0 102 -101q0 -98 -102 -98q-98 0 -99 98z" />
<glyph unicode="/" horiz-adv-x="583" d="M61 -248l328 1764h135l-327 -1764h-136z" />
<glyph unicode="0" horiz-adv-x="1105" d="M92 756q0 385 117 582.5t344 197.5q229 0 344 -197.5t115 -582.5q0 -383 -115 -579.5t-344 -196.5q-227 0 -344 195.5t-117 580.5zM246 756q0 -328 74.5 -484.5t232.5 -156.5q156 0 231.5 157.5t75.5 483.5q0 647 -307 647t-307 -647z" />
<glyph unicode="1" horiz-adv-x="671" d="M33 1227l4 20l369 269h104v-1516h-152v1327h-6l-256 -178h-20z" />
<glyph unicode="2" horiz-adv-x="890" d="M80 0v201q0 92 17.5 168.5t56.5 146.5t100 134.5t152 129.5q68 51 113.5 96.5t75.5 89.5t42 90t12 99q0 246 -258 246q-51 0 -113.5 -11.5t-142.5 -37.5l-22 129q90 29 166.5 41t146.5 12q186 0 280.5 -91t94.5 -274q0 -70 -15.5 -130t-50.5 -117.5t-91 -113.5t-136 -118 q-80 -66 -133 -120t-85 -108t-45.5 -111.5t-13.5 -125.5v-90h568v-135h-719z" />
<glyph unicode="3" horiz-adv-x="849" d="M86 1503q123 33 236 33q195 0 297 -97.5t102 -281.5q0 -145 -63.5 -239.5t-182.5 -126.5v-7q287 -66 287 -397q0 -188 -118 -294.5t-329 -108.5q-53 0 -108 6t-113 20v121h15q41 -12 90 -18.5t100 -6.5q150 0 230.5 74t80.5 215q0 328 -364 328h-37v121h37 q158 0 240.5 74.5t82.5 216.5q0 276 -262 276q-82 0 -190 -27h-19z" />
<glyph unicode="4" horiz-adv-x="1003" d="M37 451v8l502 1077h12l129 -20l6 -11l-485 -1005v-11h448v9l43 549h111v-558h151v-120h-151v-369h-154v369h-575z" />
<glyph unicode="5" horiz-adv-x="837" d="M92 6v127h35q106 -25 182 -24q147 0 223 85t76 244q0 174 -87 248t-292 74h-112l-8 8l53 748h540v-136h-417l-37 -499q141 -2 239.5 -28t160 -78t89 -135t27.5 -202q0 -223 -117 -343t-330 -120q-100 0 -225 31z" />
<glyph unicode="6" horiz-adv-x="1026" d="M92 670q0 207 37 368.5t109.5 272t178 169t240.5 58.5q53 0 106.5 -8t113.5 -27l-11 -131q-59 18 -108 26.5t-99 8.5q-190 0 -295.5 -158.5t-123.5 -462.5q68 66 151.5 104t169.5 38q184 0 289.5 -118t105.5 -325q0 -115 -29.5 -209t-85 -160.5t-133 -102.5t-171.5 -36 q-221 0 -333 174.5t-112 518.5zM238 657q2 -281 75.5 -413.5t223.5 -132.5q125 0 198.5 99t73.5 273q0 156 -71.5 240t-202.5 84q-74 0 -156 -42t-141 -108z" />
<glyph unicode="7" horiz-adv-x="757" d="M47 1497l12 19h637l25 -84v-58l-434 -1376l-31 -23l-119 25v27l441 1353h-525z" />
<glyph unicode="8" horiz-adv-x="1013" d="M90 373q0 147 56.5 246.5t179.5 160.5q-98 55 -148.5 142.5t-50.5 226.5q0 180 100.5 282.5t278.5 102.5q180 0 280.5 -101.5t100.5 -283.5q0 -141 -46 -228t-153 -147q117 -55 176.5 -144t59.5 -241q0 -184 -112.5 -289.5t-305.5 -105.5q-96 0 -173 26.5t-130 75.5 t-83 120t-30 157zM233 387q0 -129 75 -203.5t198 -74.5q125 0 199.5 72.5t74.5 197.5q0 72 -16 125t-52 92t-91.5 67.5t-133.5 51.5l-38 12q-117 -57 -166.5 -134t-49.5 -206zM266 1143q0 -131 70 -202t217 -116q104 49 149.5 124t45.5 200q0 129 -62.5 198.5t-179.5 69.5 q-115 0 -177.5 -72.5t-62.5 -201.5z" />
<glyph unicode="9" horiz-adv-x="1026" d="M70 1030q0 115 29.5 209t85 160.5t132 102.5t172.5 36q221 0 333 -174t112 -518q0 -416 -146.5 -642.5t-418.5 -226.5q-53 0 -106.5 8.5t-112.5 26.5l10 131q59 -18 108 -26t99 -8q190 0 295.5 158.5t123.5 461.5q-68 -66 -151.5 -103.5t-169.5 -37.5 q-184 0 -289.5 117.5t-105.5 324.5zM217 1032q0 -156 72 -239.5t203 -83.5q74 0 155.5 42t140.5 107q-2 281 -75.5 414t-223.5 133q-125 0 -198.5 -99.5t-73.5 -273.5z" />
<glyph unicode=":" horiz-adv-x="421" d="M111 92q0 100 98 101q102 0 102 -101q0 -98 -102 -98q-98 0 -98 98zM111 1014q0 100 98 100q102 0 102 -100q0 -99 -102 -99q-98 0 -98 99z" />
<glyph unicode=";" horiz-adv-x="466" d="M78 -297l92 485h156l-133 -505zM145 1014q0 100 99 100q102 0 102 -100q0 -99 -102 -99q-98 0 -99 99z" />
<glyph unicode="&#x3c;" horiz-adv-x="1007" d="M80 694v113l809 356v-133l-643 -282l639 -281v-131z" />
<glyph unicode="=" horiz-adv-x="1024" d="M119 449v122h786v-122h-786zM119 887v123h786v-123h-786z" />
<glyph unicode="&#x3e;" horiz-adv-x="1007" d="M119 1030v133l809 -356v-113l-805 -358v131l637 281z" />
<glyph unicode="?" horiz-adv-x="813" d="M55 1483q66 23 138.5 38t148.5 15q80 0 153.5 -20.5t131 -67.5t91.5 -124t34 -189q0 -104 -36 -178t-92.5 -124.5t-126 -81t-137.5 -49.5l-4 -303v-39h-110v39l-13 389q63 16 129 39t119.5 61t88 95t34.5 143q0 80 -24.5 134.5t-64.5 87t-90 47t-103 14.5 q-59 0 -124 -12.5t-120 -34.5zM205 94q0 47 25.5 71.5t72.5 24.5q100 0 100 -96t-100 -96q-47 0 -72.5 24.5t-25.5 71.5z" />
<glyph unicode="@" horiz-adv-x="1595" d="M84 537q0 209 54.5 367.5t152.5 266t234.5 161.5t297.5 54q184 0 312.5 -54t208 -153.5t116.5 -238.5t37 -311q0 -119 -19.5 -215.5t-59.5 -165t-101.5 -106.5t-142.5 -38q-37 0 -70 7.5t-60.5 28t-46 57t-24.5 94.5h-10q-31 -47 -68 -81t-77 -54.5t-79 -29.5t-69 -9 q-72 0 -121 30.5t-80 81t-44 115t-13 129.5q0 117 31.5 215t91 170t143.5 113t190 41q115 0 279 -68l-70 -432q-6 -41 -13 -83t-7 -81q0 -59 24.5 -101t96.5 -42q104 0 155 114.5t51 309.5q0 147 -29.5 267t-97 206t-174 132t-260.5 46q-139 0 -253.5 -48t-197.5 -141.5 t-129 -232.5t-46 -321q0 -203 50 -340.5t132 -220t185.5 -117.5t209.5 -35q90 0 183.5 20.5t181.5 49.5l39 -97q-96 -33 -199 -55.5t-205 -22.5q-129 0 -253 41t-221 136.5t-156.5 252t-59.5 388.5zM522 473q0 -47 7.5 -92t25.5 -81t49 -58.5t78 -22.5q33 0 77 14.5t86 49 t75.5 96t50.5 153.5l57 349q-90 29 -160 28q-80 0 -144.5 -32.5t-109.5 -91t-68.5 -138.5t-23.5 -174z" />
<glyph unicode="A" d="M14 0v12l441 1504h215l444 -1504v-12h-143l-142 465h-532l-139 -465h-144zM330 594h467l-166 557l-62 225h-14l-59 -225z" />
<glyph unicode="B" horiz-adv-x="1136" d="M152 10v1497q68 8 119 13.5t93 8.5t78.5 5t75.5 2q254 0 374 -99.5t120 -310.5q0 -145 -60.5 -234t-173.5 -112v-8q131 -23 205 -120t74 -255q0 -209 -130 -313t-386 -104q-45 0 -99.5 2t-107.5 6t-101.5 10t-80.5 12zM293 119q14 -4 45 -7t67.5 -5.5t76.5 -4.5t75 -2 q344 2 344 306q0 160 -88 229.5t-295 69.5h-225v-586zM293 827h223q94 0 158.5 15.5t104.5 50.5t57.5 91t17.5 136q0 291 -324 291q-61 0 -116.5 -3t-120.5 -13v-568z" />
<glyph unicode="C" horiz-adv-x="1001" d="M88 756q0 209 36 355t110.5 240.5t192.5 137.5t282 43q100 0 227 -20v-130q-41 8 -96.5 12.5t-108.5 4.5q-133 0 -225 -33t-149.5 -108.5t-84 -198.5t-26.5 -303q0 -174 27.5 -296t85 -199t147.5 -111.5t217 -34.5q35 0 97.5 4t115.5 12v-127q-47 -12 -99 -18t-124 -6 q-326 2 -475.5 187t-149.5 589z" />
<glyph unicode="D" horiz-adv-x="1196" d="M152 -18v1521q102 16 178 24.5t143 8.5q332 0 484.5 -188.5t152.5 -591.5q0 -207 -41 -355.5t-127 -245t-219 -142.5t-317 -46q-59 0 -121 3t-133 12zM301 111q45 -4 78.5 -7.5t64.5 -3.5q260 0 384 157t124 499q0 172 -26.5 296t-83 201.5t-145.5 114.5t-212 37 q-49 0 -94 -4t-90 -12v-1278z" />
<glyph unicode="E" horiz-adv-x="1032" d="M152 0v1516h790v-136h-641v-546h573v-134h-573v-565h660v-135h-809z" />
<glyph unicode="F" horiz-adv-x="966" d="M152 0v1516h753v-136h-604v-557h563v-133h-563v-690h-149z" />
<glyph unicode="G" horiz-adv-x="1136" d="M88 756q0 205 37 352t115.5 241.5t200.5 138.5t294 44q53 0 134 -8t155 -25v-131q-154 31 -274 31q-139 0 -234.5 -34t-156 -110.5t-87 -199.5t-26.5 -299q0 -172 26.5 -293t85 -199t148.5 -113.5t217 -35.5q29 0 72 3t90 7v645h141v-762q-100 -16 -170.5 -22t-142.5 -6 q-164 2 -282 48t-194.5 140t-112.5 240.5t-36 347.5z" />
<glyph unicode="H" horiz-adv-x="1275" d="M152 0v1516h149v-674h674v674h151v-1516h-151v705h-674v-705h-149z" />
<glyph unicode="I" horiz-adv-x="452" d="M152 0v1516h149v-1516h-149z" />
<glyph unicode="J" horiz-adv-x="452" d="M-14 -326q51 111 83.5 196t52 164t27 159.5t7.5 183.5v1139h149v-1147q0 -98 -12 -189.5t-39 -182.5t-69 -184.5t-101 -191.5z" />
<glyph unicode="K" horiz-adv-x="1150" d="M152 0v1516h149v-676h172l457 676h176l-461 -685l-65 -53v-10l69 -49l498 -719h-174l-492 702h-180v-702h-149z" />
<glyph unicode="L" horiz-adv-x="837" d="M152 0v1516h149v-1381h512v-135h-661z" />
<glyph unicode="M" horiz-adv-x="1626" d="M152 0v1516h204l389 -1059l62 -207h10l64 207l389 1059h205v-1516h-146v1266h-10l-70 -213l-362 -985h-152l-362 985l-70 213h-10v-1266h-141z" />
<glyph unicode="N" horiz-adv-x="1335" d="M152 0v1516h141l651 -1078l88 -172l12 2v1248h142v-1516h-146l-645 1071l-92 178l-12 -2v-1247h-139z" />
<glyph unicode="O" horiz-adv-x="1253" d="M88 756q0 395 132 587.5t405 192.5q274 0 407 -192.5t133 -590.5q0 -773 -540 -773q-537 0 -537 776zM244 756q0 -170 21.5 -291t67.5 -199t119 -114.5t173 -36.5t173.5 36.5t120 114.5t69 199t22.5 291q0 338 -92.5 492.5t-292.5 154.5q-100 0 -172 -37t-118 -116 t-68.5 -201.5t-22.5 -292.5z" />
<glyph unicode="P" horiz-adv-x="1077" d="M152 0v1505q164 33 315 33q287 0 419 -124t132 -394t-136.5 -395t-430.5 -125q-74 0 -150 6v-506h-149zM301 643l90 -8t86 -4q203 0 295 92t92 297q0 203 -88 294t-284 91q-41 0 -90.5 -4t-100.5 -12v-746z" />
<glyph unicode="Q" horiz-adv-x="1247" d="M84 756q0 397 132 588.5t405 191.5q274 0 407 -192.5t133 -587.5q0 -707 -491 -744v-14q84 -31 209 -51.5t292 -36.5l-59 -129q-281 51 -476.5 115.5t-318 172t-178 272.5t-55.5 415zM238 756q0 -172 21.5 -294t68.5 -200t119 -113.5t174 -35.5q201 0 294 152.5t93 490.5 q0 340 -92.5 494.5t-294.5 154.5q-203 0 -293 -152.5t-90 -496.5z" />
<glyph unicode="R" horiz-adv-x="1103" d="M152 0v1505q80 16 158.5 24.5t156.5 8.5q289 0 420 -116.5t131 -374.5q0 -180 -65.5 -289t-204.5 -158l290 -600h-159l-271 567q-35 -4 -70.5 -6t-74.5 -2q-37 0 -81 1t-81 5v-565h-149zM301 698q98 -12 176 -12q205 0 296 85t91 276q0 188 -88 273t-284 85 q-35 0 -84.5 -4t-106.5 -12v-691z" />
<glyph unicode="S" horiz-adv-x="962" d="M68 43l14 133q29 -14 74 -26.5t95 -21.5t101 -15.5t94 -6.5q145 0 224.5 72t79.5 205q0 115 -76 185.5t-236 133.5q-88 37 -153.5 75t-108.5 86t-64.5 111.5t-21.5 149.5q0 94 31 171t88 131.5t139 84t182 29.5q74 0 151 -10t167 -33l-10 -131q-92 23 -167 32t-132 9 q-135 0 -215 -77t-80 -206q0 -55 17.5 -96t54 -74.5t93 -64.5t134.5 -62q92 -39 159.5 -79.5t111.5 -92t64.5 -117t20.5 -151.5q0 -195 -114.5 -304.5t-319.5 -109.5q-45 0 -97.5 5.5t-105.5 14.5t-103 21.5t-91 28.5z" />
<glyph unicode="T" horiz-adv-x="970" d="M29 1378v138h915v-138h-383v-1378h-153v1378h-379z" />
<glyph unicode="U" horiz-adv-x="1294" d="M139 594v922h150v-918q0 -254 85 -368.5t273 -114.5q190 0 273.5 113.5t83.5 369.5v918h153v-922q0 -160 -28.5 -275.5t-90 -191.5t-158 -111.5t-233.5 -35.5t-233.5 35.5t-157.5 111.5t-89 191.5t-28 275.5z" />
<glyph unicode="V" horiz-adv-x="1150" d="M10 1516h152l338 -1094l69 -268h13l71 268l338 1094h148l-463 -1516h-203z" />
<glyph unicode="W" horiz-adv-x="1779" d="M29 1516h166l233 -1059l51 -258h15l57 258l264 1059h166l246 -1059l51 -258h16l56 258l252 1059h163l-383 -1516h-188l-252 1063l-41 231h-12l-43 -231l-271 -1063h-188z" />
<glyph unicode="X" horiz-adv-x="1142" d="M14 0l459 766l-444 750h172l356 -605l18 -37h5l16 37l352 605h166l-446 -748l462 -768h-172l-372 623l-19 34h-4l-16 -34l-365 -623h-168z" />
<glyph unicode="Y" horiz-adv-x="1103" d="M0 1516h166l336 -732l45 -120h12l45 120l334 732h166l-475 -1002v-514h-152v508z" />
<glyph unicode="Z" horiz-adv-x="972" d="M57 0v125l664 1243v12h-647v136h825v-125l-663 -1246v-12h679v-133h-858z" />
<glyph unicode="[" horiz-adv-x="595" d="M147 -328v2106h394v-115h-267v-1876h267v-115h-394z" />
<glyph unicode="\" horiz-adv-x="573" d="M61 1516h123l328 -1762h-123z" />
<glyph unicode="]" horiz-adv-x="595" d="M53 -213h266v1876h-266v115h393v-2106h-393v115z" />
<glyph unicode="^" horiz-adv-x="733" d="M78 985l231 631h113l231 -631h-108l-174 512h-9l-174 -512h-110z" />
<glyph unicode="_" horiz-adv-x="1003" d="M84 -123h836v-121h-836v121z" />
<glyph unicode="`" horiz-adv-x="460" d="M61 1638h156l145 -368l-104 -21z" />
<glyph unicode="a" horiz-adv-x="909" d="M59 279q0 305 385 335l197 15v119q0 139 -52 195t-173 56q-51 0 -127 -9t-137 -25l-13 122q78 16 157 25.5t144 9.5q180 0 264 -84t84 -262v-776h-124l-15 133h-12q-66 -53 -144.5 -98t-170.5 -45q-123 0 -193 76.5t-70 212.5zM211 291q0 -86 42 -132t120 -46 q35 0 71.5 13t72.5 32.5t67.5 41t56.5 36.5v286l-166 -14q-143 -12 -203.5 -63.5t-60.5 -153.5z" />
<glyph unicode="b" horiz-adv-x="989" d="M125 35v1620h149v-660q49 61 123 95t160 34q176 0 264 -137t88 -409q0 -121 -23.5 -227.5t-79.5 -187.5t-147.5 -130t-226.5 -53q-141 0 -307 55zM274 117q100 -23 166 -23q160 0 238 115t78 356q0 227 -59.5 334t-182.5 107q-45 0 -88 -16.5t-77 -46.5t-54.5 -73 t-20.5 -98v-655z" />
<glyph unicode="c" horiz-adv-x="780" d="M80 553q0 573 446 573q72 0 185 -26v-127q-49 12 -91 17t-83 5q-158 0 -229.5 -105.5t-71.5 -336.5q0 -229 72.5 -336.5t228.5 -107.5q63 0 174 24v-125q-41 -12 -91.5 -20t-93.5 -8q-225 0 -335.5 140t-110.5 433z" />
<glyph unicode="d" horiz-adv-x="991" d="M80 543q0 281 119.5 431t343.5 150q39 0 76.5 -3t95.5 -13v547h149v-1655h-133l-14 111h-6q-99 -129 -273 -129q-182 0 -270 137t-88 424zM233 555q0 -229 61.5 -342t178.5 -113q45 0 89 16.5t78 46.5t54.5 73t20.5 98v653q-57 12 -95 17.5t-79 5.5q-152 0 -230 -113 t-78 -342z" />
<glyph unicode="e" horiz-adv-x="913" d="M80 532q0 291 106.5 441.5t315.5 150.5q168 0 254 -120.5t86 -356.5q0 -51 -2 -84t-6 -67h-603q8 -199 78 -294.5t205 -95.5q66 0 131.5 14.5t140.5 49.5l11 -125q-59 -29 -136 -46t-153 -17q-207 0 -317.5 142t-110.5 408zM233 612h467q0 207 -49 298t-153 91 q-121 0 -187.5 -98t-77.5 -291z" />
<glyph unicode="f" horiz-adv-x="563" d="M31 977v129h153v80q0 129 19.5 215t64.5 140t121 81t191 37l6 -121q-76 -8 -125 -26.5t-77 -57.5t-39 -101.5t-11 -158.5v-88h205v-129h-205v-977h-150v977h-153z" />
<glyph unicode="g" horiz-adv-x="991" d="M80 543q0 281 119.5 431t343.5 150q86 0 159.5 -11t161.5 -36v-948q0 -301 -102.5 -440.5t-321.5 -139.5q-139 0 -270 48l12 124q70 -25 128.5 -36t119.5 -11q154 0 219.5 93.5t69.5 310.5v45h-8q-98 -127 -269 -127q-184 0 -273 134t-89 413zM236 555q-1 -444 237 -444 q45 0 89 15t78 45t54.5 71t20.5 92v653q-59 12 -96 17.5t-78 5.5q-305 0 -305 -455z" />
<glyph unicode="h" horiz-adv-x="983" d="M127 0v1655h149v-668q102 72 186.5 105.5t162.5 33.5q127 0 181 -67.5t54 -222.5v-836h-149v801q0 102 -33 146t-105 44q-133 0 -297 -114v-877h-149z" />
<glyph unicode="i" horiz-adv-x="407" d="M106 1454q0 94 97 94q100 0 100 -94q0 -98 -100 -98q-96 0 -97 98zM129 0v1106h150v-1106h-150z" />
<glyph unicode="j" horiz-adv-x="405" d="M-10 -403q139 264 139 630v879h150v-928q0 -160 -49.5 -326.5t-137.5 -302.5zM106 1454q0 94 97 94q100 0 100 -94q0 -98 -100 -98q-96 0 -97 98z" />
<glyph unicode="k" horiz-adv-x="911" d="M127 0v1655h149v-1028h138l303 479h164l-338 -518l-31 -19v-4l33 -20l370 -545h-165l-338 510h-136v-510h-149z" />
<glyph unicode="l" horiz-adv-x="413" d="M133 0v1655h150v-1655h-150z" />
<glyph unicode="m" horiz-adv-x="1548" d="M127 0v1106h123l12 -119h6q197 139 348 139q90 0 140.5 -33.5t72.5 -107.5h11q98 72 184 106.5t168 34.5q125 0 179 -67.5t54 -222.5v-836h-145v801q0 102 -34 146t-105 44q-66 0 -139.5 -28.5t-151.5 -81.5v-881h-145v801q0 102 -34 146t-106 44q-135 0 -291 -110v-881 h-147z" />
<glyph unicode="n" horiz-adv-x="983" d="M127 0v1106h129l10 -119h8q104 72 188.5 105.5t162.5 33.5q127 0 181 -67.5t54 -222.5v-836h-149v801q0 104 -33 147t-105 43q-66 0 -140.5 -29.5t-156.5 -84.5v-877h-149z" />
<glyph unicode="o" horiz-adv-x="999" d="M80 553q0 283 106.5 428t313.5 145t313.5 -145t106.5 -428t-106.5 -427t-313.5 -144t-313.5 145t-106.5 426zM231 553q0 -233 65 -338.5t204 -105.5t203.5 105t64.5 339q0 236 -64.5 342t-203.5 106t-204 -106.5t-65 -341.5z" />
<glyph unicode="p" horiz-adv-x="991" d="M127 -451v1557h135l10 -111h9q49 59 120.5 94t157.5 35q176 0 264 -137t88 -409q0 -121 -24.5 -229.5t-80.5 -190.5t-146.5 -130t-221.5 -48q-76 0 -162 18v-449h-149zM276 117q100 -23 166 -23q160 0 238 115t78 356q0 227 -59.5 334t-182.5 107q-45 0 -88 -16.5 t-77 -46.5t-54.5 -73t-20.5 -98v-655z" />
<glyph unicode="q" horiz-adv-x="989" d="M80 543q0 281 121 431t350 150q82 0 156.5 -10t156.5 -35v-1530h-147v560q-109 -127 -279 -127q-182 0 -270 137t-88 424zM231 557q0 -457 242 -457q47 0 90 16.5t77 47.5t54.5 74t20.5 96v653q-61 14 -98 18.5t-76 4.5q-309 0 -310 -453z" />
<glyph unicode="r" horiz-adv-x="638" d="M127 0v1106h129l10 -133h10q41 37 126 80t180 71h34v-157h-59q-88 -14 -160.5 -42t-120.5 -65v-860h-149z" />
<glyph unicode="s" horiz-adv-x="759" d="M76 20v125q66 -23 136.5 -34t133.5 -11q96 0 148.5 50.5t52.5 142.5q0 82 -41 131t-133 72q-49 12 -99.5 27.5t-92.5 49t-68.5 91t-26.5 153.5q0 147 86 230t238 83q53 0 107 -7t136 -25v-125q-80 20 -127 26.5t-92 6.5q-96 0 -151.5 -48.5t-55.5 -134.5 q0 -53 15.5 -85.5t41 -54t59.5 -34t73 -24.5q63 -18 114.5 -43t87 -62t55 -90t19.5 -131q0 -147 -91 -234.5t-245 -87.5q-59 0 -123.5 10.5t-156.5 32.5z" />
<glyph unicode="t" horiz-adv-x="675" d="M25 973v133h204l21 274l121 23v-297h280v-133h-280v-662q0 -100 43 -148t123 -48q23 0 53.5 3t54.5 11v-123q-82 -16 -141 -16q-281 0 -281 295v688h-198z" />
<glyph unicode="u" horiz-adv-x="980" d="M119 270v836h149v-803q0 -104 33 -145t115 -41q68 0 132 27.5t154 93.5v868h150v-1106h-127l-12 117h-8q-104 -74 -179 -105.5t-147 -31.5q-133 0 -196.5 69.5t-63.5 220.5z" />
<glyph unicode="v" horiz-adv-x="942" d="M25 1096v10h153l258 -856l29 -111h14l29 111l258 856h152v-10l-351 -1096h-192z" />
<glyph unicode="w" horiz-adv-x="1372" d="M41 1098v8h143l162 -764l29 -160h16l37 160l184 764h152l184 -764l39 -160h12l33 160l162 764h137v-8l-252 -1098h-168l-196 780l-21 113h-14l-23 -113l-194 -780h-170z" />
<glyph unicode="x" horiz-adv-x="942" d="M20 0v12l351 561l-330 521v12h160l231 -381l37 -68h10l35 68l231 381h158v-12l-330 -533l351 -549v-12h-160l-254 418l-37 65h-10l-35 -65l-248 -418h-160z" />
<glyph unicode="y" horiz-adv-x="946" d="M23 1096v10h151l268 -815l27 -125h10l29 125l266 815h152v-10l-518 -1547l-150 31v10l139 412z" />
<glyph unicode="z" horiz-adv-x="811" d="M59 0v98l496 871v10h-477v127h653v-98l-495 -871v-10h516v-127h-693z" />
<glyph unicode="{" horiz-adv-x="679" d="M39 678v113q78 0 118 57t40 162v546q0 127 47 174.5t170 47.5q20 0 53 -1t64.5 -3t57 -3.5t34.5 -3.5v-104h-183q-66 0 -90 -23.5t-24 -85.5v-573q0 -92 -34 -157.5t-89 -90.5q55 -23 89 -88t34 -156v-573q0 -66 24.5 -89.5t89.5 -23.5h183v-102q-8 -2 -34 -4t-57.5 -3 t-64.5 -2t-53 -1q-123 0 -170 47t-47 174v551q0 102 -40 158.5t-118 56.5z" />
<glyph unicode="|" horiz-adv-x="440" d="M147 -451v2106h144v-2106h-144z" />
<glyph unicode="}" horiz-adv-x="677" d="M57 -197h181q66 0 90 23.5t24 89.5v573q0 90 35 156t92 88q-57 25 -92 90.5t-35 157.5v573q0 61 -24.5 85t-89.5 24h-181v104q8 2 34 3.5t58.5 3.5t64.5 3t52 1q61 0 103.5 -10.5t67 -36t34.5 -68.5t10 -107v-546q0 -104 40 -161.5t118 -57.5v-113q-78 0 -118 -56.5 t-40 -158.5v-551q0 -63 -10 -106.5t-34.5 -69t-66.5 -35.5t-104 -10q-20 0 -52 1t-64.5 2t-58 3t-34.5 4v102z" />
<glyph unicode="~" horiz-adv-x="1048" d="M106 580q43 57 79 96t67 62.5t60.5 32.5t64.5 9q49 0 86 -23.5t70.5 -52t66.5 -52t74 -23.5q47 0 92 39t70 100l104 -53q-16 -39 -44 -77t-61.5 -67.5t-72.5 -48t-80 -18.5q-51 0 -91 23.5t-74 53t-65.5 53t-64.5 23.5q-45 0 -87 -32.5t-97 -110.5z" />
<glyph unicode="&#xa1;" horiz-adv-x="411" d="M113 1006q0 47 25.5 71.5t72.5 24.5t73.5 -24.5t26.5 -71.5q0 -45 -26.5 -72t-73.5 -27t-72.5 25.5t-25.5 73.5zM127 -389l31 1100v28h96v-28l29 -1100v-21h-156v21z" />
<glyph unicode="&#xa2;" horiz-adv-x="815" d="M80 553q0 514 364 567v234h111v-230q59 -2 156 -24v-127q-49 12 -91 17t-83 5q-158 0 -229.5 -105.5t-71.5 -336.5q0 -229 72.5 -336.5t228.5 -107.5q63 0 174 24v-125q-35 -10 -76 -17t-80 -9v-226h-111v230q-184 23 -274 162t-90 405z" />
<glyph unicode="&#xa3;" horiz-adv-x="1052" d="M82 0v135h219v555h-219v127h219v268q0 227 84 335t281 108q66 0 140.5 -14.5t170.5 -45.5l-19 -125q-74 25 -145.5 37.5t-124.5 12.5q-129 0 -182 -71t-53 -241v-264h344v-127h-344v-555h495v-135h-866z" />
<glyph unicode="&#xa4;" horiz-adv-x="1095" d="M90 383l109 115l108 71q-29 82 -28 189q0 109 30 188l-110 74l-109 113l80 81l117 -108l59 -90q35 53 87 83.5t118 30.5q63 0 112.5 -29.5t84.5 -82.5l61 88l115 108l80 -81l-109 -113l-113 -76q31 -80 31 -186t-31 -187l113 -73l109 -115l-80 -82l-115 109l-61 88 q-74 -115 -201 -115q-66 0 -117 29.5t-86 83.5l-57 -86l-117 -109zM389 758q0 -127 43 -195.5t115 -68.5t113.5 67.5t41.5 196.5q0 131 -42 196.5t-113 65.5q-72 0 -115 -66.5t-43 -195.5z" />
<glyph unicode="&#xa5;" horiz-adv-x="1189" d="M43 1516h166l336 -732l45 -120h12l45 120l334 732h166l-424 -893h264v-117h-315v-182h315v-117h-315v-207h-152v207h-315v117h315v182h-315v117h260z" />
<glyph unicode="&#xa6;" horiz-adv-x="417" d="M137 418h142v-869h-142v869zM137 786v869h142v-869h-142z" />
<glyph unicode="&#xa7;" horiz-adv-x="811" d="M100 20v123q66 -23 136.5 -33t134.5 -10q94 0 147 50.5t53 142.5q0 82 -42 131t-134 74q-47 12 -98 27.5t-93 48t-68.5 90t-26.5 153.5q0 121 61 201q-29 35 -45 84t-16 125q0 145 87 228t238 83q53 0 107.5 -7t134.5 -26v-123q-82 20 -128 26.5t-89 6.5 q-98 0 -152.5 -49t-54.5 -135q0 -51 15.5 -85t41 -55.5t59 -34t70.5 -22.5q63 -18 114.5 -42.5t87.5 -61.5t55.5 -91.5t19.5 -131.5q0 -59 -16.5 -109.5t-45.5 -91.5q61 -74 62 -207q0 -145 -91 -233.5t-243 -88.5q-59 0 -123.5 10.5t-157.5 32.5zM246 823q0 -53 14 -85.5 t39 -54t55.5 -35t65.5 -25.5t65.5 -26t57.5 -28q33 55 32 131q0 82 -35.5 130.5t-119.5 74.5q-31 10 -62.5 19.5t-62.5 25.5q-49 -53 -49 -127z" />
<glyph unicode="&#xa8;" horiz-adv-x="802" d="M109 1376q0 86 90 86q41 0 65.5 -20.5t24.5 -65.5t-24.5 -66.5t-65.5 -21.5q-90 0 -90 88zM483 1376q0 86 90 86q41 0 63.5 -20.5t22.5 -65.5t-22.5 -66.5t-63.5 -21.5q-90 0 -90 88z" />
<glyph unicode="&#xa9;" horiz-adv-x="1689" d="M84 758q0 174 54.5 318.5t154.5 246.5t240.5 158.5t312.5 56.5t311 -56.5t239.5 -158.5t155 -246.5t54.5 -318.5q0 -176 -54.5 -319.5t-155 -246t-239.5 -159t-311 -56.5t-312.5 56.5t-240.5 159t-154.5 246t-54.5 319.5zM190 758q0 -154 46.5 -278t132.5 -213 t206.5 -137t270.5 -48t270.5 48t206.5 137t132 213t46 278t-46 278.5t-132 213.5t-207 137.5t-270 48.5q-150 0 -270.5 -48.5t-206.5 -137.5t-132.5 -214t-46.5 -278zM500 750q0 213 101 318.5t276 105.5q47 0 91 -5.5t85 -15.5v-106q-41 8 -83 13t-81 5q-129 0 -200 -77 t-71 -236q0 -160 72 -236t197 -76q37 0 80 5.5t90 13.5v-103q-84 -22 -180 -22q-174 0 -275.5 103.5t-101.5 312.5z" />
<glyph unicode="&#xaa;" horiz-adv-x="755" d="M78 926q0 102 66.5 165.5t201.5 75.5l168 15v69q0 96 -35 133t-135 37q-31 0 -78 -4t-116 -16l-13 102q150 25 236 25q141 0 204.5 -60.5t63.5 -193.5v-553h-106l-7 96h-8q-72 -53 -131.5 -78.5t-112.5 -25.5q-90 0 -144 58t-54 155zM201 936q-1 -123 114 -123 q39 0 84 18.5t115 61.5v199l-90 -7q-127 -10 -175 -42.5t-48 -106.5z" />
<glyph unicode="&#xab;" horiz-adv-x="915" d="M72 549v8l192 487h154l-193 -487v-8l193 -488h-154zM494 549v8l192 487h154l-193 -487v-8l193 -488h-154z" />
<glyph unicode="&#xac;" horiz-adv-x="1443" d="M106 741v129h1215v-632h-147v503h-1068z" />
<glyph unicode="&#xad;" horiz-adv-x="677" d="M113 512v123h452v-123h-452z" />
<glyph unicode="&#xae;" horiz-adv-x="1427" d="M86 913q0 137 46 252t129 199t198.5 131t253.5 47q137 0 252.5 -47t199.5 -131t131 -198.5t47 -252.5q0 -137 -47 -251.5t-131 -197.5t-199.5 -130t-252.5 -47t-253 47t-199 130t-129 197.5t-46 251.5zM180 913q0 -117 39 -216t109.5 -169.5t169 -110.5t215.5 -40 q119 0 217 40t168.5 110.5t109.5 170t39 215.5q0 117 -39 216.5t-109.5 170t-169 110.5t-216.5 40q-117 0 -215.5 -40t-169 -110.5t-109.5 -170t-39 -216.5zM485 580v688q53 6 101.5 10t89.5 4q160 0 236.5 -53t76.5 -168q0 -156 -149 -201l-2 -8l174 -272h-105l-159 254 h-170v-254h-93zM578 920q16 -2 46.5 -2h59.5q209 0 209 143q0 72 -48 105.5t-159 33.5q-47 0 -108 -6v-274z" />
<glyph unicode="&#xaf;" horiz-adv-x="733" d="M100 1319v111h529v-111h-529z" />
<glyph unicode="&#xb0;" horiz-adv-x="784" d="M78 1147q0 84 22.5 155.5t64.5 124t99.5 81t128.5 28.5q70 0 127.5 -28.5t98 -81t63.5 -124t23 -155.5t-23 -155.5t-63.5 -123t-98 -80t-127.5 -28.5q-72 0 -129 28.5t-99 80t-64.5 123t-22.5 155.5zM176 1147q0 -129 54 -207t163 -78q104 0 158.5 78t54.5 207t-54 208 t-159 79q-109 0 -163 -79t-54 -208z" />
<glyph unicode="&#xb1;" horiz-adv-x="1034" d="M121 190v121h792v-121h-792zM121 817v121h336v348h121v-348h335v-121h-335v-344h-121v344h-336z" />
<glyph unicode="&#xb2;" horiz-adv-x="698" d="M68 614v158q0 131 57 230.5t188 197.5q94 72 134 131.5t40 130.5q0 80 -46 122t-132 42q-74 0 -196 -37l-21 115q70 23 129.5 33t110.5 10q291 0 291 -274q0 -104 -50.5 -184.5t-156.5 -164.5q-111 -88 -160 -165.5t-49 -170.5v-55h414v-119h-553z" />
<glyph unicode="&#xb3;" horiz-adv-x="663" d="M72 1722q49 12 95 19.5t89 7.5q147 0 226 -75t79 -212q0 -98 -49 -167.5t-135 -98.5q213 -63 213 -291q0 -141 -89 -222t-249 -81q-82 0 -172 23v116h20q31 -8 67 -13t73 -5q104 0 159.5 49t55.5 141q0 221 -254 222h-37v112h39q106 0 164.5 52.5t58.5 144.5 q0 90 -46 137t-136 47q-29 0 -63 -5t-75 -15h-22z" />
<glyph unicode="&#xb4;" horiz-adv-x="444" d="M80 1264l149 374h154l-195 -389z" />
<glyph unicode="&#xb5;" horiz-adv-x="1028" d="M145 -451v1557h148v-803q0 -188 156 -188q61 0 126.5 25.5t151.5 84.5v881h150v-1106h-127l-13 117h-8q-104 -74 -179 -105.5t-144 -31.5q-63 0 -113 16v-447h-148z" />
<glyph unicode="&#xb6;" horiz-adv-x="978" d="M70 1034q0 137 25.5 231.5t73.5 152t114.5 83t148.5 25.5q37 0 68.5 -5t70.5 -16v-1505h-102v545q-10 -2 -24.5 -2h-26.5q-80 0 -143.5 25.5t-109.5 83t-70.5 151.5t-24.5 231zM690 0v1505h123v-1505h-123z" />
<glyph unicode="&#xb7;" horiz-adv-x="409" d="M106 758q0 96 97 96q47 0 72.5 -23.5t25.5 -72.5t-25.5 -72.5t-72.5 -23.5q-96 0 -97 96z" />
<glyph unicode="&#xb8;" horiz-adv-x="530" d="M51 -319q29 -10 60.5 -15.5t58.5 -5.5q125 0 125 125q0 53 -22.5 116.5t-63.5 129.5h115q86 -141 86 -262q0 -104 -58 -162t-164 -58q-66 0 -137 23v109z" />
<glyph unicode="&#xb9;" horiz-adv-x="542" d="M33 1511l4 23l278 199h95v-1119h-138v953l-180 -121h-22z" />
<glyph unicode="&#xba;" horiz-adv-x="808" d="M82 1118q0 209 86 310.5t240 101.5q152 0 235.5 -101.5t83.5 -310.5t-83.5 -310t-235.5 -101q-154 0 -240 101t-86 310zM207 1118q0 -88 14.5 -147.5t40 -95t62.5 -51t84 -15.5q43 0 78.5 15.5t62 51t41 95t14.5 147.5t-14.5 148.5t-41 96.5t-62 51.5t-78.5 15.5 q-47 0 -84 -15.5t-62.5 -51.5t-40 -96.5t-14.5 -148.5z" />
<glyph unicode="&#xbb;" horiz-adv-x="915" d="M78 61l192 488v8l-192 487h151l193 -487v-8l-193 -488h-151zM500 61l192 488v8l-192 487h151l193 -487v-8l-193 -488h-151z" />
<glyph unicode="&#xbc;" horiz-adv-x="1636" d="M45 1307l4 22l279 199h94v-1118h-137v952l-181 -121h-22zM432 0l533 1516h129l-533 -1516h-129zM891 346l360 776l21 8l104 -18l4 -20l-348 -715h311l35 403h92v-403h111v-109h-111v-268h-137v268h-409z" />
<glyph unicode="&#xbd;" horiz-adv-x="1701" d="M45 1307l4 22l279 199h94v-1118h-137v952l-181 -121h-22zM432 0l533 1516h129l-533 -1516h-129zM1059 -2v158q0 63 12 118.5t42 105.5t77 99t115 105q51 41 83.5 73.5t53 61.5t29 58.5t8.5 64.5q0 82 -45 125t-129 43q-47 0 -104.5 -10.5t-96.5 -26.5l-21 114 q143 43 242 43q141 0 215 -69.5t74 -204.5q0 -51 -9.5 -93t-33 -82t-63.5 -82t-101 -91q-59 -49 -99 -90t-64.5 -81t-35 -80t-10.5 -85v-55h414v-119h-553z" />
<glyph unicode="&#xbe;" horiz-adv-x="1751" d="M92 1518q49 12 95 19t89 7q147 0 226.5 -74.5t79.5 -212.5q0 -98 -49.5 -167.5t-135.5 -98.5q213 -63 213 -291q0 -141 -89 -222t-249 -81q-82 0 -172 23v117h21q31 -8 66.5 -13.5t72.5 -5.5q104 0 159.5 49t55.5 142q0 221 -254 221h-37v112h39q106 0 164.5 52.5 t58.5 144.5q0 90 -46 137t-136 47q-29 0 -62.5 -5t-74.5 -15h-23zM539 0l532 1516h129l-532 -1516h-129zM1010 346l360 776l21 8l104 -18l4 -20l-348 -715h311l35 403h92v-403h111v-109h-111v-268h-137v268h-410z" />
<glyph unicode="&#xbf;" horiz-adv-x="796" d="M53 -20q0 104 36 177.5t92.5 124t126 81t136.5 49.5l5 303v39h110v-39l12 -389q-63 -16 -128.5 -39t-120 -61t-88 -95t-33.5 -143q0 -80 24.5 -134.5t64.5 -87t90 -47t103 -14.5q59 0 124 12.5t120 34.5l23 -121q-66 -23 -138.5 -38t-148.5 -15q-80 0 -153.5 20.5 t-131 67.5t-91.5 124t-34 190zM401 1020q1 96 101 96q47 0 72.5 -24.5t25.5 -71.5t-25.5 -71.5t-72.5 -24.5q-100 0 -101 96z" />
<glyph unicode="&#xc0;" d="M14 0v12l441 1504h215l444 -1504v-12h-143l-142 465h-532l-139 -465h-144zM303 1903h158l153 -267l-118 -26zM330 594h467l-166 557l-62 225h-14l-59 -225z" />
<glyph unicode="&#xc1;" d="M14 0v12l441 1504h215l444 -1504v-12h-143l-142 465h-532l-139 -465h-144zM330 594h467l-166 557l-62 225h-14l-59 -225zM498 1618l153 285h158l-193 -293z" />
<glyph unicode="&#xc2;" d="M14 0v12l441 1504h215l444 -1504v-12h-143l-142 465h-532l-139 -465h-144zM291 1661v125l272 147l275 -147v-125l-275 147zM330 594h467l-166 557l-62 225h-14l-59 -225z" />
<glyph unicode="&#xc3;" d="M14 0v12l441 1504h215l444 -1504v-12h-143l-142 465h-532l-139 -465h-144zM250 1733q37 59 93 101t112 42q39 0 71.5 -13.5t63.5 -30.5t62.5 -30.5t66.5 -13.5q33 0 62.5 21.5t54.5 60.5l55 -41q-31 -72 -86 -111t-113 -39q-39 0 -71.5 13.5t-63.5 29t-61.5 28.5 t-65.5 13t-69.5 -21.5t-63.5 -55.5zM330 594h467l-166 557l-62 225h-14l-59 -225z" />
<glyph unicode="&#xc4;" d="M14 0v12l441 1504h215l444 -1504v-12h-143l-142 465h-532l-139 -465h-144zM270 1755q0 96 97 96q100 0 100 -96t-100 -96q-96 0 -97 96zM330 594h467l-166 557l-62 225h-14l-59 -225zM662 1755q0 96 98 96q45 0 71.5 -22.5t26.5 -73.5t-26.5 -73.5t-71.5 -22.5 q-98 0 -98 96z" />
<glyph unicode="&#xc5;" d="M14 0v12l439 1497q-43 29 -65.5 75t-22.5 106q0 90 52 151.5t146 61.5t146.5 -61.5t52.5 -151.5q0 -59 -23.5 -105.5t-66.5 -75.5l442 -1497v-12h-143l-142 465h-532l-139 -465h-144zM330 594h467l-166 557l-62 225h-14l-59 -225zM451 1690q0 -57 27.5 -93t84.5 -36 q55 0 84 35.5t29 93.5q0 59 -27.5 95t-85.5 36q-59 0 -85.5 -36t-26.5 -95z" />
<glyph unicode="&#xc6;" horiz-adv-x="1544" d="M10 0v12l490 1504h948v-136h-588l27 -546h508v-134h-502l29 -565h544v-135h-692l-20 463h-441l-151 -463h-152zM356 598h394l-33 788h-103z" />
<glyph unicode="&#xc7;" horiz-adv-x="1001" d="M88 756q0 209 36 355t110.5 240.5t192.5 137.5t282 43q100 0 227 -19v-131q-41 8 -96.5 12.5t-108.5 4.5q-133 0 -225 -33t-149.5 -108.5t-84 -198.5t-26.5 -303q0 -174 27.5 -296t85 -199t147.5 -111.5t217 -34.5q35 0 97.5 4t115.5 12v-127q-47 -12 -99.5 -18 t-123.5 -6q-12 0 -21 2q57 -113 58 -213q0 -104 -58 -162t-164 -58q-66 0 -137 23v109q29 -10 60.5 -15.5t58.5 -5.5q125 0 125 125q0 45 -17.5 98.5t-46.5 106.5q-250 39 -366.5 223t-116.5 543z" />
<glyph unicode="&#xc8;" horiz-adv-x="1032" d="M152 0v1516h790v-136h-641v-546h573v-134h-573v-565h660v-135h-809zM285 1903h157l154 -267l-119 -26z" />
<glyph unicode="&#xc9;" horiz-adv-x="1032" d="M152 0v1516h790v-136h-641v-546h573v-134h-573v-565h660v-135h-809zM477 1618l154 285h157l-192 -293z" />
<glyph unicode="&#xca;" horiz-adv-x="1032" d="M152 0v1516h790v-136h-641v-546h573v-134h-573v-565h660v-135h-809zM272 1661v125l273 147l274 -147v-125l-274 147z" />
<glyph unicode="&#xcb;" horiz-adv-x="1032" d="M152 0v1516h790v-136h-641v-546h573v-134h-573v-565h660v-135h-809zM250 1755q0 96 96 96q100 0 100 -96t-100 -96q-96 0 -96 96zM641 1755q0 96 98 96q45 0 72 -22.5t27 -73.5t-27 -73.5t-72 -22.5q-98 0 -98 96z" />
<glyph unicode="&#xcc;" horiz-adv-x="452" d="M-29 1903h158l154 -267l-119 -26zM152 0v1516h149v-1516h-149z" />
<glyph unicode="&#xcd;" horiz-adv-x="452" d="M152 0v1516h149v-1516h-149zM164 1618l153 285h158l-192 -293z" />
<glyph unicode="&#xce;" horiz-adv-x="452" d="M-41 1661v125l272 147l275 -147v-125l-275 147zM152 0v1516h149v-1516h-149z" />
<glyph unicode="&#xcf;" horiz-adv-x="452" d="M-61 1755q0 96 96 96q100 0 100 -96t-100 -96q-96 0 -96 96zM152 0v1516h149v-1516h-149zM330 1755q0 96 98 96q45 0 71.5 -22.5t26.5 -73.5t-26.5 -73.5t-71.5 -22.5q-98 0 -98 96z" />
<glyph unicode="&#xd0;" horiz-adv-x="1222" d="M-2 694v125h180v684q102 16 178 24.5t144 8.5q332 0 484.5 -188.5t152.5 -591.5q0 -207 -41 -355.5t-127 -245t-219.5 -142.5t-317.5 -46q-59 0 -120.5 3t-133.5 12v712h-180zM328 111q45 -4 78.5 -7.5t64.5 -3.5q260 0 384 157t124 499q0 172 -26.5 296t-83 201.5 t-145.5 114.5t-212 37q-49 0 -94 -4t-90 -12v-570h286v-125h-286v-583z" />
<glyph unicode="&#xd1;" horiz-adv-x="1335" d="M152 0v1516h141l651 -1078l88 -172l12 2v1248h142v-1516h-146l-645 1071l-92 178l-12 -2v-1247h-139zM358 1733q37 59 93.5 101t111.5 42q39 0 72 -13.5t63.5 -30.5t62.5 -30.5t66 -13.5q33 0 63 21.5t54 60.5l55 -41q-31 -72 -86 -111t-112 -39q-39 0 -72 13.5t-63.5 29 t-61.5 28.5t-65 13q-35 0 -70 -21.5t-63 -55.5z" />
<glyph unicode="&#xd2;" horiz-adv-x="1253" d="M88 756q0 395 132 587.5t405 192.5q274 0 407 -192.5t133 -587.5q1 -776 -540 -776q-537 0 -537 776zM244 756q0 -170 21.5 -291t67.5 -199t119 -114.5t173 -36.5t173.5 36.5t120 114.5t69 199t22.5 291q0 338 -92.5 492.5t-292.5 154.5q-100 0 -172 -37t-118 -116 t-68.5 -201.5t-22.5 -292.5zM367 1903h157l154 -267l-119 -26z" />
<glyph unicode="&#xd3;" horiz-adv-x="1253" d="M88 756q0 395 132 587.5t405 192.5q274 0 407 -192.5t133 -587.5q1 -776 -540 -776q-537 0 -537 776zM244 756q0 -170 21.5 -291t67.5 -199t119 -114.5t173 -36.5t173.5 36.5t120 114.5t69 199t22.5 291q0 338 -92.5 492.5t-292.5 154.5q-100 0 -172 -37t-118 -116 t-68.5 -201.5t-22.5 -292.5zM559 1618l154 285h157l-192 -293z" />
<glyph unicode="&#xd4;" horiz-adv-x="1253" d="M88 756q0 395 132 587.5t405 192.5q274 0 407 -192.5t133 -587.5q1 -776 -540 -776q-537 0 -537 776zM244 756q0 -170 21.5 -291t67.5 -199t119 -114.5t173 -36.5t173.5 36.5t120 114.5t69 199t22.5 291q0 338 -92.5 492.5t-292.5 154.5q-100 0 -172 -37t-118 -116 t-68.5 -201.5t-22.5 -292.5zM354 1661v125l273 147l274 -147v-125l-274 147z" />
<glyph unicode="&#xd5;" horiz-adv-x="1253" d="M88 756q0 395 132 587.5t405 192.5q274 0 407 -192.5t133 -587.5q1 -776 -540 -776q-537 0 -537 776zM244 756q0 -170 21.5 -291t67.5 -199t119 -114.5t173 -36.5t173.5 36.5t120 114.5t69 199t22.5 291q0 338 -92.5 492.5t-292.5 154.5q-100 0 -172 -37t-118 -116 t-68.5 -201.5t-22.5 -292.5zM313 1733q37 59 93.5 101t111.5 42q39 0 72 -13.5t63.5 -30.5t62.5 -30.5t66 -13.5q33 0 62.5 21.5t54.5 60.5l55 -41q-31 -72 -86 -111t-112 -39q-39 0 -72 13.5t-63.5 29t-61.5 28.5t-65 13q-35 0 -70 -21.5t-64 -55.5z" />
<glyph unicode="&#xd6;" horiz-adv-x="1253" d="M88 756q0 395 132 587.5t405 192.5q274 0 407 -192.5t133 -587.5q1 -776 -540 -776q-537 0 -537 776zM244 756q0 -170 21.5 -291t67.5 -199t119 -114.5t173 -36.5t173.5 36.5t120 114.5t69 199t22.5 291q0 338 -92.5 492.5t-292.5 154.5q-100 0 -172 -37t-118 -116 t-68.5 -201.5t-22.5 -292.5zM334 1755q0 96 96 96q100 0 100 -96t-100 -96q-96 0 -96 96zM725 1755q0 96 98 96q45 0 72 -22.5t27 -73.5t-27 -73.5t-72 -22.5q-98 0 -98 96z" />
<glyph unicode="&#xd7;" horiz-adv-x="913" d="M98 485l273 275l-273 272l84 86l273 -274l274 274l86 -86l-274 -274l274 -273l-84 -84l-274 273l-275 -273z" />
<glyph unicode="&#xd8;" horiz-adv-x="1271" d="M37 0l162 229q-98 190 -99 527q0 395 132.5 587.5t404.5 192.5q240 0 375 -156l94 136h131l-162 -232q100 -195 101 -528q0 -776 -539 -776q-242 0 -373 153l-94 -133h-133zM254 756q0 -242 45 -385l623 884q-90 147 -285 148q-201 0 -292 -153.5t-91 -493.5zM350 256 q47 -74 118 -107.5t169 -33.5q100 0 173 36.5t120 114.5t68.5 199t21.5 291q0 233 -47 385z" />
<glyph unicode="&#xd9;" horiz-adv-x="1294" d="M139 594v922h150v-918q0 -254 85 -368.5t273 -114.5q190 0 273.5 113.5t83.5 369.5v918h153v-922q0 -160 -28.5 -275.5t-90 -191.5t-158 -111.5t-233.5 -35.5t-233.5 35.5t-157.5 111.5t-89 191.5t-28 275.5zM383 1903h158l153 -267l-119 -26z" />
<glyph unicode="&#xda;" horiz-adv-x="1294" d="M139 594v922h150v-918q0 -254 85 -368.5t273 -114.5q190 0 273.5 113.5t83.5 369.5v918h153v-922q0 -160 -28.5 -275.5t-90 -191.5t-158 -111.5t-233.5 -35.5t-233.5 35.5t-157.5 111.5t-89 191.5t-28 275.5zM578 1618l153 285h158l-193 -293z" />
<glyph unicode="&#xdb;" horiz-adv-x="1294" d="M139 594v922h150v-918q0 -254 85 -368.5t273 -114.5q190 0 273.5 113.5t83.5 369.5v918h153v-922q0 -160 -28.5 -275.5t-90 -191.5t-158 -111.5t-233.5 -35.5t-233.5 35.5t-157.5 111.5t-89 191.5t-28 275.5zM371 1661v125l272 147l275 -147v-125l-275 147z" />
<glyph unicode="&#xdc;" horiz-adv-x="1294" d="M139 594v922h150v-918q0 -254 85 -368.5t273 -114.5q190 0 273.5 113.5t83.5 369.5v918h153v-922q0 -160 -28.5 -275.5t-90 -191.5t-158 -111.5t-233.5 -35.5t-233.5 35.5t-157.5 111.5t-89 191.5t-28 275.5zM350 1755q0 96 96 96q100 0 101 -96q-1 -96 -101 -96 q-96 0 -96 96zM741 1755q0 96 99 96q45 0 71.5 -22.5t26.5 -73.5t-26.5 -73.5t-71.5 -22.5q-98 0 -99 96z" />
<glyph unicode="&#xdd;" horiz-adv-x="1103" d="M0 1516h166l336 -732l45 -120h12l45 120l334 732h166l-475 -1002v-514h-152v508zM492 1618l153 285h158l-193 -293z" />
<glyph unicode="&#xde;" horiz-adv-x="1081" d="M152 0v1516h149v-248q43 4 84 7t82 3q287 0 419 -124t132 -394q0 -272 -136.5 -396t-430.5 -124h-74t-76 4v-244h-149zM301 381q41 -4 91 -7t85 -3q203 0 295 92t92 297q0 203 -88 295t-284 92q-35 0 -88.5 -4t-102.5 -15v-747z" />
<glyph unicode="&#xdf;" horiz-adv-x="1087" d="M127 0v1237q0 221 97.5 322.5t305.5 101.5q207 0 304.5 -101.5t97.5 -322.5v-229h-144q-100 0 -159.5 -49.5t-59.5 -135.5q0 -53 15.5 -85.5t42 -54t60.5 -35t71 -23.5q63 -18 114.5 -43t87 -62t55 -90t19.5 -131q0 -145 -91 -233.5t-243 -88.5q-59 0 -123.5 10.5 t-156.5 32.5v123q66 -23 137.5 -33t134.5 -10q92 0 145.5 50.5t53.5 142.5q0 82 -42 131t-134 74q-49 12 -99.5 27.5t-92.5 48t-68.5 90t-26.5 153.5q0 143 91 228t245 85h20v107q0 164 -57 231.5t-197 67.5q-139 0 -196.5 -67.5t-57.5 -231.5v-1237h-149z" />
<glyph unicode="&#xe0;" horiz-adv-x="909" d="M59 279q0 305 385 335l197 15v119q0 139 -52 195t-173 56q-51 0 -127 -9t-137 -25l-13 122q78 16 157 25.5t144 9.5q180 0 264 -84t84 -262v-776h-124l-15 133h-12q-66 -53 -144.5 -98t-170.5 -45q-123 0 -193 76.5t-70 212.5zM211 291q0 -86 42 -132t120 -46 q35 0 71.5 13t72.5 32.5t67.5 41t56.5 36.5v286l-166 -14q-143 -12 -203.5 -63.5t-60.5 -153.5zM225 1638h156l145 -368l-104 -21z" />
<glyph unicode="&#xe1;" horiz-adv-x="909" d="M59 279q0 305 385 335l197 15v119q0 139 -52 195t-173 56q-51 0 -127 -9t-137 -25l-13 122q78 16 157 25.5t144 9.5q180 0 264 -84t84 -262v-776h-124l-15 133h-12q-66 -53 -144.5 -98t-170.5 -45q-123 0 -193 76.5t-70 212.5zM211 291q0 -86 42 -132t120 -46 q35 0 71.5 13t72.5 32.5t67.5 41t56.5 36.5v286l-166 -14q-143 -12 -203.5 -63.5t-60.5 -153.5zM412 1264l149 374h154l-195 -389z" />
<glyph unicode="&#xe2;" horiz-adv-x="909" d="M59 279q0 305 385 335l197 15v119q0 139 -52 195t-173 56q-51 0 -127 -9t-137 -25l-13 122q78 16 157 25.5t144 9.5q180 0 264 -84t84 -262v-776h-124l-15 133h-12q-66 -53 -144.5 -98t-170.5 -45q-123 0 -193 76.5t-70 212.5zM197 1296v125l274 148l272 -148v-125 l-272 146zM211 291q0 -86 42 -132t120 -46q35 0 71.5 13t72.5 32.5t67.5 41t56.5 36.5v286l-166 -14q-143 -12 -203.5 -63.5t-60.5 -153.5z" />
<glyph unicode="&#xe3;" horiz-adv-x="909" d="M59 279q0 305 385 335l197 15v119q0 139 -52 195t-173 56q-51 0 -127 -9t-137 -25l-13 122q78 16 157 25.5t144 9.5q180 0 264 -84t84 -262v-776h-124l-15 133h-12q-66 -53 -144.5 -98t-170.5 -45q-123 0 -193 76.5t-70 212.5zM147 1350q35 59 91.5 98t111.5 39 q39 0 72 -15.5t63.5 -34t61.5 -33.5t65 -15q35 0 64 22.5t51 61.5l59 -52q-29 -68 -84 -104.5t-112 -36.5q-39 0 -72 14.5t-63.5 33t-61.5 32.5t-65 14q-35 0 -68 -22.5t-59 -57.5zM211 291q0 -86 42 -132t120 -46q35 0 71.5 13t72.5 32.5t67.5 41t56.5 36.5v286l-166 -14 q-143 -12 -203.5 -63.5t-60.5 -153.5z" />
<glyph unicode="&#xe4;" horiz-adv-x="909" d="M59 279q0 305 385 335l197 15v119q0 139 -52 195t-173 56q-51 0 -127 -9t-137 -25l-13 122q78 16 157 25.5t144 9.5q180 0 264 -84t84 -262v-776h-124l-15 133h-12q-66 -53 -144.5 -98t-170.5 -45q-123 0 -193 76.5t-70 212.5zM188 1376q0 86 91 86q41 0 65.5 -20.5 t24.5 -65.5t-24.5 -66.5t-65.5 -21.5q-90 0 -91 88zM211 291q0 -86 42 -132t120 -46q35 0 71.5 13t72.5 32.5t67.5 41t56.5 36.5v286l-166 -14q-143 -12 -203.5 -63.5t-60.5 -153.5zM563 1376q0 86 90 86q41 0 63.5 -20.5t22.5 -65.5t-22.5 -66.5t-63.5 -21.5q-90 0 -90 88z " />
<glyph unicode="&#xe5;" horiz-adv-x="909" d="M59 279q0 305 385 335l197 15v119q0 139 -52 195t-173 56q-51 0 -127 -9t-137 -25l-13 122q78 16 157 25.5t144 9.5q180 0 264 -84t84 -262v-776h-124l-15 133h-12q-66 -53 -144.5 -98t-170.5 -45q-123 0 -193 76.5t-70 212.5zM211 291q0 -86 42 -132t120 -46 q35 0 71.5 13t72.5 32.5t67.5 41t56.5 36.5v286l-166 -14q-143 -12 -203.5 -63.5t-60.5 -153.5zM262 1464q0 90 51.5 150.5t149.5 60.5t150.5 -60.5t52.5 -150.5q0 -92 -53.5 -152.5t-149.5 -60.5t-148.5 60.5t-52.5 152.5zM356 1464q0 -55 28 -92t79 -37q53 0 81.5 37 t28.5 92q0 53 -28.5 90t-81.5 37t-80 -36.5t-27 -90.5z" />
<glyph unicode="&#xe6;" horiz-adv-x="1476" d="M59 279q0 305 385 335l197 15v135q-2 127 -54 181t-171 54q-53 0 -129 -9t-135 -25l-13 122q82 16 161 25.5t140 9.5q231 0 287 -196h10q98 199 324 198q170 0 255 -120.5t85 -356.5q0 -51 -2 -83t-6 -64h-602q4 -195 75.5 -294.5t210.5 -99.5q61 0 128 14.5t145 49.5 l10 -125q-61 -29 -138 -46t-151 -17q-119 0 -203 49t-135 141l-12 2q-72 -49 -127 -85t-101.5 -57.5t-87 -31.5t-83.5 -10q-123 0 -193 76.5t-70 212.5zM211 291q0 -86 42 -132t120 -46q59 0 127.5 41t171.5 108q-16 45 -23.5 119t-7.5 141l-166 -14q-141 -12 -202.5 -63.5 t-61.5 -153.5zM791 608h471q-6 209 -53.5 301t-149.5 92q-123 0 -191.5 -100t-76.5 -293z" />
<glyph unicode="&#xe7;" horiz-adv-x="780" d="M78 553q0 573 446 573q72 0 185 -26v-127q-49 12 -91.5 17t-82.5 5q-158 0 -230 -105.5t-72 -336.5q0 -229 73 -336.5t229 -107.5q63 0 174 24v-125q-37 -10 -80 -18t-84 -10q57 -115 57 -211q0 -104 -57.5 -162t-163.5 -58q-66 0 -137 23v109q29 -10 60.5 -15.5 t57.5 -5.5q125 0 125 125q0 45 -16 97t-45 106q-176 29 -262 167t-86 398z" />
<glyph unicode="&#xe8;" horiz-adv-x="913" d="M80 532q0 291 106.5 441.5t315.5 150.5q168 0 254 -120.5t86 -356.5q0 -51 -2 -84t-6 -67h-603q8 -199 78 -294.5t205 -95.5q66 0 131.5 14.5t140.5 49.5l11 -125q-59 -29 -136 -46t-153 -17q-207 0 -317.5 142t-110.5 408zM219 1638h156l145 -368l-104 -21zM233 612h467 q0 207 -49 298t-153 91q-121 0 -187.5 -98t-77.5 -291z" />
<glyph unicode="&#xe9;" horiz-adv-x="913" d="M80 532q0 291 106.5 441.5t315.5 150.5q168 0 254 -120.5t86 -356.5q0 -51 -2 -84t-6 -67h-603q8 -199 78 -294.5t205 -95.5q66 0 131.5 14.5t140.5 49.5l11 -125q-59 -29 -136 -46t-153 -17q-207 0 -317.5 142t-110.5 408zM233 612h467q0 207 -49 298t-153 91 q-121 0 -187.5 -98t-77.5 -291zM426 1264l149 374h154l-194 -389z" />
<glyph unicode="&#xea;" horiz-adv-x="913" d="M80 532q0 291 106.5 441.5t315.5 150.5q168 0 254 -120.5t86 -356.5q0 -51 -2 -84t-6 -67h-603q8 -199 78 -294.5t205 -95.5q66 0 131.5 14.5t140.5 49.5l11 -125q-59 -29 -136 -46t-153 -17q-207 0 -317.5 142t-110.5 408zM199 1296v125l274 148l272 -148v-125l-272 146 zM233 612h467q0 207 -49 298t-153 91q-121 0 -187.5 -98t-77.5 -291z" />
<glyph unicode="&#xeb;" horiz-adv-x="913" d="M80 532q0 291 106.5 441.5t315.5 150.5q168 0 254 -120.5t86 -356.5q0 -51 -2 -84t-6 -67h-603q8 -199 78 -294.5t205 -95.5q66 0 131.5 14.5t140.5 49.5l11 -125q-59 -29 -136 -46t-153 -17q-207 0 -317.5 142t-110.5 408zM197 1376q0 86 90 86q41 0 65.5 -20.5 t24.5 -65.5t-24.5 -66.5t-65.5 -21.5q-90 0 -90 88zM233 612h467q0 207 -49 298t-153 91q-121 0 -187.5 -98t-77.5 -291zM571 1376q0 86 91 86q41 0 63.5 -20.5t22.5 -65.5t-22.5 -66.5t-63.5 -21.5q-90 0 -91 88z" />
<glyph unicode="&#xec;" horiz-adv-x="407" d="M-31 1638h156l145 -368l-104 -21zM129 0v1106h150v-1106h-150z" />
<glyph unicode="&#xed;" horiz-adv-x="407" d="M129 0v1106h150v-1106h-150zM156 1264l149 374h154l-195 -389z" />
<glyph unicode="&#xee;" horiz-adv-x="411" d="M-59 1296v125l274 148l272 -148v-125l-272 146zM131 0v1106h150v-1106h-150z" />
<glyph unicode="&#xef;" horiz-adv-x="411" d="M-66 1376q0 86 89 86q90 0 90 -86q0 -88 -90 -88q-88 0 -89 88zM131 0v1106h150v-1106h-150zM307 1376q0 86 90 86q88 0 88 -86q0 -88 -88 -88q-90 0 -90 88z" />
<glyph unicode="&#xf0;" horiz-adv-x="1005" d="M80 553q0 283 106.5 428t313.5 145q131 0 215 -102q-41 143 -99 289l-213 -33v111l168 24q-29 63 -62.5 122.5t-68.5 117.5h154q33 -51 62.5 -105.5t56.5 -111.5l221 35v-111l-174 -27q76 -188 118 -389t42 -393q0 -283 -106.5 -427t-313.5 -144t-313.5 145t-106.5 426z M231 553q0 -233 65 -338.5t204 -105.5q141 0 204.5 105t63.5 339q0 82 -10 163t-40 144.5t-82 102t-136 38.5q-139 0 -204 -106.5t-65 -341.5z" />
<glyph unicode="&#xf1;" horiz-adv-x="983" d="M127 0v1106h129l10 -119h8q104 72 188.5 105.5t162.5 33.5q127 0 181 -67.5t54 -222.5v-836h-149v801q0 104 -33 147t-105 43q-66 0 -140.5 -29.5t-156.5 -84.5v-877h-149zM184 1350q35 59 91.5 98t111.5 39q39 0 72 -15.5t63.5 -34t61 -33.5t65.5 -15t63.5 22.5 t51.5 61.5l59 -52q-29 -68 -84 -104.5t-112 -36.5q-39 0 -72 14.5t-63.5 33t-61.5 32.5t-65 14q-35 0 -68 -22.5t-59 -57.5z" />
<glyph unicode="&#xf2;" horiz-adv-x="999" d="M80 553q0 283 106.5 428t313.5 145t313.5 -145t106.5 -428t-106.5 -427t-313.5 -144t-313.5 145t-106.5 426zM231 553q0 -233 65 -338.5t204 -105.5t203.5 105t64.5 339q0 236 -64.5 342t-203.5 106t-204 -106.5t-65 -341.5zM244 1638h155l146 -368l-105 -21z" />
<glyph unicode="&#xf3;" horiz-adv-x="999" d="M80 553q0 283 106.5 428t313.5 145t313.5 -145t106.5 -428t-106.5 -427t-313.5 -144t-313.5 145t-106.5 426zM231 553q0 -233 65 -338.5t204 -105.5t203.5 105t64.5 339q0 236 -64.5 342t-203.5 106t-204 -106.5t-65 -341.5zM428 1264l150 374h153l-194 -389z" />
<glyph unicode="&#xf4;" horiz-adv-x="999" d="M80 553q0 283 106.5 428t313.5 145t313.5 -145t106.5 -428t-106.5 -427t-313.5 -144t-313.5 145t-106.5 426zM215 1296v125l274 148l273 -148v-125l-273 146zM231 553q0 -233 65 -338.5t204 -105.5t203.5 105t64.5 339q0 236 -64.5 342t-203.5 106t-204 -106.5 t-65 -341.5z" />
<glyph unicode="&#xf5;" horiz-adv-x="999" d="M80 553q0 283 106.5 428t313.5 145t313.5 -145t106.5 -428t-106.5 -427t-313.5 -144t-313.5 145t-106.5 426zM164 1350q35 59 91 98t112 39q39 0 71.5 -15.5t63 -34t61.5 -33.5t66 -15t63.5 22.5t50.5 61.5l60 -52q-29 -68 -84 -104.5t-113 -36.5q-39 0 -71.5 14.5 t-63.5 33t-61.5 32.5t-65.5 14t-67.5 -22.5t-59.5 -57.5zM231 553q0 -233 65 -338.5t204 -105.5t203.5 105t64.5 339q0 236 -64.5 342t-203.5 106t-204 -106.5t-65 -341.5z" />
<glyph unicode="&#xf6;" horiz-adv-x="999" d="M80 553q0 283 106.5 428t313.5 145t313.5 -145t106.5 -428t-106.5 -427t-313.5 -144t-313.5 145t-106.5 426zM205 1376q0 86 90 86q41 0 65.5 -20.5t24.5 -65.5t-24.5 -66.5t-65.5 -21.5q-90 0 -90 88zM231 553q0 -233 65 -338.5t204 -105.5t203.5 105t64.5 339 q0 236 -64.5 342t-203.5 106t-204 -106.5t-65 -341.5zM580 1376q0 86 90 86q41 0 63.5 -20.5t22.5 -65.5t-22.5 -66.5t-63.5 -21.5q-90 0 -90 88z" />
<glyph unicode="&#xf7;" horiz-adv-x="1015" d="M109 698v119h800v-119h-800zM424 428q0 45 24.5 68.5t65.5 23.5t66.5 -24.5t25.5 -67.5q0 -45 -25.5 -67.5t-66.5 -22.5t-65.5 22.5t-24.5 67.5zM424 1073q0 45 24.5 69.5t65.5 24.5t66.5 -25.5t25.5 -68.5t-25.5 -66.5t-66.5 -23.5t-65.5 23.5t-24.5 66.5z" />
<glyph unicode="&#xf8;" horiz-adv-x="1007" d="M49 0l117 164q-82 145 -82 389q0 283 106.5 428t313.5 145q168 0 274 -102l58 82h114l-112 -160q86 -141 86 -393q0 -283 -106.5 -427t-313.5 -144q-170 0 -277 102l-59 -84h-119zM236 553q0 -158 26 -252l432 608q-66 92 -190 92q-141 0 -204.5 -106t-63.5 -342z M309 199q64 -90 195 -90q137 0 202.5 105t65.5 339q0 156 -31 258z" />
<glyph unicode="&#xf9;" horiz-adv-x="980" d="M119 270v836h149v-803q0 -104 33 -145t115 -41q68 0 132 27.5t154 93.5v868h150v-1106h-127l-12 117h-8q-104 -74 -179 -105.5t-147 -31.5q-133 0 -196.5 69.5t-63.5 220.5zM246 1638h155l146 -368l-105 -21z" />
<glyph unicode="&#xfa;" horiz-adv-x="980" d="M119 270v836h149v-803q0 -104 33 -145t115 -41q68 0 132 27.5t154 93.5v868h150v-1106h-127l-12 117h-8q-104 -74 -179 -105.5t-147 -31.5q-133 0 -196.5 69.5t-63.5 220.5zM432 1264l150 374h153l-194 -389z" />
<glyph unicode="&#xfb;" horiz-adv-x="980" d="M119 270v836h149v-803q0 -104 33 -145t115 -41q68 0 132 27.5t154 93.5v868h150v-1106h-127l-12 117h-8q-104 -74 -179 -105.5t-147 -31.5q-133 0 -196.5 69.5t-63.5 220.5zM217 1296v125l275 148l272 -148v-125l-272 146z" />
<glyph unicode="&#xfc;" horiz-adv-x="980" d="M119 270v836h149v-803q0 -104 33 -145t115 -41q68 0 132 27.5t154 93.5v868h150v-1106h-127l-12 117h-8q-104 -74 -179 -105.5t-147 -31.5q-133 0 -196.5 69.5t-63.5 220.5zM207 1376q0 86 90 86q41 0 65.5 -20.5t24.5 -65.5t-24.5 -66.5t-65.5 -21.5q-90 0 -90 88z M582 1376q0 86 90 86q41 0 63.5 -20.5t22.5 -65.5t-22.5 -66.5t-63.5 -21.5q-90 0 -90 88z" />
<glyph unicode="&#xfd;" horiz-adv-x="946" d="M23 1096v10h151l268 -815l27 -125h10l29 125l266 815h152v-10l-518 -1547l-150 31v10l139 412zM432 1264l150 374h153l-194 -389z" />
<glyph unicode="&#xfe;" horiz-adv-x="991" d="M127 -451v2106h149v-658q53 63 127 95t156 32q176 0 264 -137t88 -409q0 -293 -121.5 -445.5t-351.5 -152.5q-76 0 -162 18v-449h-149zM276 117q100 -23 166 -23q160 0 238 115t78 356q0 227 -59.5 334t-182.5 107q-45 0 -88 -16.5t-77 -46.5t-54.5 -73t-20.5 -98v-655z " />
<glyph unicode="&#xff;" horiz-adv-x="946" d="M23 1096v10h151l268 -815l27 -125h10l29 125l266 815h152v-10l-518 -1547l-150 31v10l139 412zM209 1376q0 86 90 86q41 0 65.5 -20.5t24.5 -65.5t-24.5 -66.5t-65.5 -21.5q-90 0 -90 88zM584 1376q0 86 90 86q41 0 63.5 -20.5t22.5 -65.5t-22.5 -66.5t-63.5 -21.5 q-90 0 -90 88z" />
<glyph unicode="&#x152;" horiz-adv-x="1624" d="M88 756q0 387 138.5 577.5t410.5 190.5q41 0 92 -2t86 -6h711v-136h-565v-544h509v-129h-509v-572h583v-135h-729q-35 -4 -86 -6t-92 -2q-549 0 -549 764zM242 756q0 -166 22.5 -286t71.5 -195.5t126.5 -111.5t186.5 -36q35 0 81 2t79 6v1243q-35 4 -81 7.5t-81 3.5 q-109 0 -185.5 -37t-125.5 -114t-71.5 -196.5t-22.5 -285.5z" />
<glyph unicode="&#x153;" horiz-adv-x="1603" d="M80 553q0 283 106.5 428t313.5 145q258 0 340 -272h12q43 133 127 201.5t211 68.5q170 0 255 -120.5t85 -356.5q0 -51 -2 -83t-6 -64h-600q10 -393 282 -394q63 0 130 14.5t145 49.5l10 -125q-61 -29 -138 -46t-151 -17q-131 0 -219 67.5t-131 196.5h-10 q-86 -264 -340 -264q-207 0 -313.5 145t-106.5 426zM231 553q0 -233 65 -338.5t204 -105.5t203.5 105t64.5 339q0 236 -64.5 342t-203.5 106t-204 -106.5t-65 -341.5zM922 608h469q-6 209 -54.5 301t-148.5 92q-123 0 -189.5 -100t-76.5 -293z" />
<glyph unicode="&#x178;" horiz-adv-x="1103" d="M0 1516h166l336 -732l45 -120h12l45 120l334 732h166l-475 -1002v-514h-152v508zM266 1755q0 96 96 96q100 0 101 -96q-1 -96 -101 -96q-96 0 -96 96zM657 1755q0 96 99 96q45 0 71.5 -22.5t26.5 -73.5t-26.5 -73.5t-71.5 -22.5q-98 0 -99 96z" />
<glyph unicode="&#x2c6;" horiz-adv-x="708" d="M68 1296v125l274 148l272 -148v-125l-272 146z" />
<glyph unicode="&#x2dc;" horiz-adv-x="821" d="M70 1350q35 59 91 98t111 39q39 0 72 -15.5t63.5 -34t61.5 -33.5t66 -15t63.5 22.5t50.5 61.5l60 -52q-29 -68 -84.5 -104.5t-112.5 -36.5q-39 0 -71.5 14.5t-63.5 33t-61.5 32.5t-65.5 14t-67.5 -22.5t-59.5 -57.5z" />
<glyph unicode="&#x2000;" horiz-adv-x="966" />
<glyph unicode="&#x2001;" horiz-adv-x="1933" />
<glyph unicode="&#x2002;" horiz-adv-x="966" />
<glyph unicode="&#x2003;" horiz-adv-x="1933" />
<glyph unicode="&#x2004;" horiz-adv-x="644" />
<glyph unicode="&#x2005;" horiz-adv-x="483" />
<glyph unicode="&#x2006;" horiz-adv-x="322" />
<glyph unicode="&#x2007;" horiz-adv-x="322" />
<glyph unicode="&#x2008;" horiz-adv-x="241" />
<glyph unicode="&#x2009;" horiz-adv-x="386" />
<glyph unicode="&#x200a;" horiz-adv-x="107" />
<glyph unicode="&#x2010;" horiz-adv-x="677" d="M113 512v123h452v-123h-452z" />
<glyph unicode="&#x2011;" horiz-adv-x="677" d="M113 512v123h452v-123h-452z" />
<glyph unicode="&#x2012;" horiz-adv-x="677" d="M113 512v123h452v-123h-452z" />
<glyph unicode="&#x2013;" horiz-adv-x="1011" d="M127 512v123h760v-123h-760z" />
<glyph unicode="&#x2014;" horiz-adv-x="1361" d="M127 512v123h1110v-123h-1110z" />
<glyph unicode="&#x2018;" horiz-adv-x="352" d="M92 1282q0 49 8.5 101.5t22.5 101.5t33.5 94t44.5 82l71 -16q-29 -78 -47 -164t-18 -164q0 -106 43 -225l-123 -21q-35 84 -35 211z" />
<glyph unicode="&#x2019;" horiz-adv-x="352" d="M86 1087q29 76 46.5 163t17.5 165q0 53 -10.5 109.5t-33.5 115.5l125 21q33 -90 33 -213q0 -98 -29.5 -201.5t-76.5 -175.5z" />
<glyph unicode="&#x201a;" horiz-adv-x="362" d="M68 -260q29 76 46 163t17 165q0 53 -10 109t-33 116l125 20q33 -90 33 -213q0 -98 -30 -201.5t-77 -174.5z" />
<glyph unicode="&#x201c;" horiz-adv-x="749" d="M92 1282q0 49 8.5 101.5t22.5 101.5t33.5 94t44.5 82l71 -16q-29 -78 -47 -164t-18 -164q0 -106 43 -225l-123 -21q-35 84 -35 211zM489 1282q0 49 8.5 101.5t23 101.5t33.5 94t44 82l72 -16q-29 -78 -47.5 -164t-18.5 -164q0 -106 43 -225l-123 -21q-35 84 -35 211z" />
<glyph unicode="&#x201d;" horiz-adv-x="747" d="M86 1087q29 76 46.5 163t17.5 165q0 53 -10.5 109.5t-33.5 115.5l125 21q33 -90 33 -213q0 -98 -29.5 -201.5t-76.5 -175.5zM483 1087q29 76 46.5 163t17.5 165q0 53 -10.5 109.5t-32.5 115.5l125 21q33 -90 33 -213q0 -98 -30 -201.5t-77 -175.5z" />
<glyph unicode="&#x201e;" horiz-adv-x="757" d="M68 -260q29 76 46 163t17 165q0 53 -10 109t-33 116l125 20q33 -90 33 -213q0 -98 -30 -201.5t-77 -174.5zM463 -260q29 76 46 163t17 165q0 53 -10 109t-33 116l125 20q33 -90 33 -213q0 -98 -29.5 -201.5t-76.5 -174.5z" />
<glyph unicode="&#x2022;" horiz-adv-x="585" d="M141 758q0 84 45 116.5t107 32.5q59 0 104 -32.5t45 -116.5t-45 -117t-104 -33q-61 0 -106.5 33t-45.5 117z" />
<glyph unicode="&#x2026;" horiz-adv-x="1243" d="M104 92q0 100 99 101q102 0 102 -101q0 -98 -102 -98q-98 0 -99 98zM530 92q0 100 99 101q102 0 102 -101q0 -98 -102 -98q-98 0 -99 98zM940 92q0 100 98 101q102 0 103 -101q-1 -98 -103 -98q-98 0 -98 98z" />
<glyph unicode="&#x202f;" horiz-adv-x="386" />
<glyph unicode="&#x2039;" horiz-adv-x="493" d="M72 549v8l192 487h154l-193 -487v-8l193 -488h-154z" />
<glyph unicode="&#x203a;" horiz-adv-x="493" d="M78 61l192 488v8l-192 487h151l193 -487v-8l-193 -488h-151z" />
<glyph unicode="&#x205f;" horiz-adv-x="483" />
<glyph unicode="&#x20ac;" horiz-adv-x="1048" d="M76 532v105h147q-2 29 -2 58.5v60.5v61.5t2 59.5h-147v104h157q35 289 179.5 421t412.5 132q47 0 81 -4t69 -10l-39 -127q-23 2 -44.5 3t-49.5 1q-104 0 -183 -22.5t-134.5 -72t-88.5 -129t-47 -192.5h442l-40 -104h-412q-2 -29 -2 -59v-62v-61.5t2 -57.5h387l-41 -105 h-336q31 -221 137.5 -319t309.5 -98q23 0 54.5 3t61.5 9v-135q-25 -6 -54.5 -9t-70.5 -3q-266 4 -410.5 136t-183.5 416h-157z" />
<glyph unicode="&#x2122;" horiz-adv-x="1591" d="M55 1411v105h553v-105h-219v-756h-115v756h-219zM709 655v861h137l239 -654l240 654h137v-861h-108v639l-215 -600h-105l-217 598v-637h-108z" />
<glyph unicode="&#x25fc;" horiz-adv-x="1105" d="M0 0v1106h1106v-1106h-1106z" />
</font>
</defs>
</svg>
