<?xml version="1.0" standalone="no"?>
<!DOCTYPE svg PUBLIC "-//W3C//DTD SVG 1.1//EN" "http://www.w3.org/Graphics/SVG/1.1/DTD/svg11.dtd" >
<svg xmlns="http://www.w3.org/2000/svg">
<metadata></metadata>
<defs>
<font id="encode_sans_condensedregular" horiz-adv-x="1073" >
<font-face units-per-em="2048" ascent="1638" descent="-410" />
<missing-glyph horiz-adv-x="423" />
<glyph unicode="&#xfb01;" horiz-adv-x="1095" d="M33 967v139h182v72q0 135 20.5 224t70.5 144.5t134 82t211 34.5l8 -129q-86 -8 -141 -25.5t-87 -54.5t-44 -99.5t-12 -156.5v-92h233v-139h-233v-967h-162v967h-180zM776 1450q0 100 103 100q104 0 104 -100q0 -102 -104 -102q-102 0 -103 102zM799 0v1106h159v-1106 h-159z" />
<glyph unicode="&#xfb02;" horiz-adv-x="1097" d="M33 967v139h182v72q0 135 20.5 224t70.5 144.5t134 82t211 34.5l8 -129q-86 -8 -141 -25.5t-87 -54.5t-44 -99.5t-12 -156.5v-92h233v-139h-233v-967h-162v967h-180zM797 0v1655h161v-1655h-161z" />
<glyph unicode="&#xfb03;" horiz-adv-x="1720" d="M33 967v139h182v72q0 135 20.5 224t70.5 144.5t134 82t211 34.5l8 -129q-86 -8 -141 -25.5t-87 -54.5t-44 -99.5t-12 -156.5v-92h233v-139h-233v-967h-162v967h-180zM657 967v139h183v72q0 135 20.5 224t70.5 144.5t134 82t211 34.5l8 -129q-86 -8 -141.5 -25.5 t-87 -54.5t-44 -99.5t-12.5 -156.5v-92h234v-139h-234v-967h-161v967h-181zM1399 1450q0 100 102 100q104 0 105 -100q-1 -102 -105 -102q-102 0 -102 102zM1421 0v1106h160v-1106h-160z" />
<glyph unicode="&#xfb04;" horiz-adv-x="1722" d="M33 967v139h182v72q0 135 20.5 224t70.5 144.5t134 82t211 34.5l8 -129q-86 -8 -141 -25.5t-87 -54.5t-44 -99.5t-12 -156.5v-92h233v-139h-233v-967h-162v967h-180zM657 967v139h183v72q0 135 20.5 224t70.5 144.5t134 82t211 34.5l8 -129q-86 -8 -141.5 -25.5 t-87 -54.5t-44 -99.5t-12.5 -156.5v-92h234v-139h-234v-967h-161v967h-181zM1421 0v1655h162v-1655h-162z" />
<glyph horiz-adv-x="0" />
<glyph unicode="&#xd;" horiz-adv-x="577" />
<glyph horiz-adv-x="0" />
<glyph horiz-adv-x="0" />
<glyph unicode=" "  horiz-adv-x="423" />
<glyph unicode="&#x09;" horiz-adv-x="423" />
<glyph unicode="&#xa0;" horiz-adv-x="423" />
<glyph unicode="!" horiz-adv-x="468" d="M137 102q0 47 28 74t75 27t74.5 -26.5t27.5 -74.5q0 -47 -27.5 -72.5t-74.5 -25.5t-75 25.5t-28 72.5zM150 1495v21h167v-21l-30 -1096v-26h-105v26z" />
<glyph unicode="&#x22;" horiz-adv-x="686" d="M125 983v672h137v-8l-53 -664h-84zM449 983v672h137v-8l-54 -664h-83z" />
<glyph unicode="#" horiz-adv-x="1044" d="M90 471v117h170l27 340h-197v116h207l39 472h123l-39 -472h231l39 472h125l-39 -472h176v-116h-186l-27 -340h213v-117h-223l-37 -471h-127l39 471h-231l-37 -471h-123l37 471h-160zM383 588h229l29 340h-231z" />
<glyph unicode="$" horiz-adv-x="1042" d="M78 43l8 141q39 -14 90 -26.5t104.5 -21.5t106.5 -14t98 -5q156 0 239 69.5t83 198.5q0 61 -21.5 107.5t-62.5 82t-101.5 64.5t-138.5 57q-98 35 -169.5 73t-120 88t-71 115.5t-22.5 153.5q0 166 98.5 275.5t272.5 134.5v279h145v-275q135 -6 297 -45l-8 -139 q-92 23 -177 34t-150 11q-143 0 -227.5 -74t-84.5 -201q0 -55 17.5 -96t56.5 -75.5t98.5 -63.5t143.5 -60q94 -35 167.5 -73.5t123 -89t75 -118t25.5 -159.5q0 -168 -90 -273.5t-254 -133.5v-283h-144v272q-94 2 -206.5 21.5t-200.5 48.5z" />
<glyph unicode="%" horiz-adv-x="1761" d="M74 1057q0 236 85 357.5t247 121.5q166 0 248.5 -122t82.5 -357q0 -238 -82.5 -358.5t-248.5 -120.5q-164 0 -248 120.5t-84 358.5zM203 1057q0 -361 203 -361q201 0 200 361q0 360 -200 360q-203 0 -203 -360zM508 0l592 1516h143l-590 -1516h-145zM1024 455 q0 236 85 357.5t249 121.5t248 -122t84 -357q0 -238 -84 -359t-248 -121t-249 121t-85 359zM1155 455q0 -361 203 -361q201 0 201 361q0 360 -201 360q-203 0 -203 -360z" />
<glyph unicode="&#x26;" horiz-adv-x="1314" d="M92 422q0 141 62.5 241.5t183.5 153.5q-55 74 -78.5 153t-23.5 175q0 195 107.5 295t311.5 100q76 0 156 -17.5t176 -56.5v-10l-26 -117h-13q-160 68 -282 68q-270 0 -271 -277q0 -74 21.5 -137t68.5 -122.5t122 -120t179 -127.5l209 -134q8 47 12.5 99.5t4.5 111.5v142 l147 6v-148q0 -84 -8 -156.5t-25 -137.5l158 -99v-12l-63 -121h-15l-131 86q-135 -283 -489 -283q-115 0 -206 31t-155.5 88.5t-98.5 139t-34 186.5zM254 430q0 -147 91 -233t249 -86q266 0 360 229l-239 158q-94 61 -166 115.5t-125 107.5q-170 -92 -170 -291z" />
<glyph unicode="'" horiz-adv-x="360" d="M125 983v672h137v-8l-53 -664h-84z" />
<glyph unicode="(" horiz-adv-x="573" d="M82 725q0 287 80 556t235 497h144v-9q-154 -223 -237 -490t-83 -554q0 -289 83 -555t237 -489v-9h-144q-156 227 -235.5 496.5t-79.5 556.5z" />
<glyph unicode=")" horiz-adv-x="573" d="M33 -319q154 223 236.5 489t82.5 555q0 287 -83 554t-236 490v9h143q156 -227 236 -496.5t80 -556.5t-80 -556t-236 -497h-143v9z" />
<glyph unicode="*" horiz-adv-x="987" d="M82 1368l35 111l159 -52l191 -96l-33 215v166h119v-166l-35 -215l193 96l159 52l35 -111l-157 -51l-213 -33l151 -156l98 -135l-92 -65l-98 133l-102 194l-99 -194l-98 -133l-92 65l96 135l152 156l-213 33z" />
<glyph unicode="+" horiz-adv-x="983" d="M90 696v125h340v346h125v-346h340v-125h-340v-348h-125v348h-340z" />
<glyph unicode="," horiz-adv-x="425" d="M49 -297l92 494h168l-135 -514z" />
<glyph unicode="-" horiz-adv-x="768" d="M121 506v135h526v-135h-526z" />
<glyph unicode="." horiz-adv-x="434" d="M111 96q0 104 106 105q51 0 80 -25.5t29 -79.5q0 -102 -109 -102q-106 0 -106 102z" />
<glyph unicode="/" horiz-adv-x="655" d="M61 -248l388 1764h145l-385 -1764h-148z" />
<glyph unicode="0" horiz-adv-x="1191" d="M98 756q0 387 126 583.5t372 196.5q244 0 370 -196.5t126 -583.5q0 -385 -126 -580.5t-370 -195.5q-246 0 -372 194.5t-126 581.5zM264 756q0 -324 81 -479.5t251 -155.5q168 0 250 155.5t82 479.5t-83 481.5t-249 157.5q-332 0 -332 -639z" />
<glyph unicode="1" horiz-adv-x="727" d="M37 1231l2 18l397 267h117v-1516h-166v1317h-6l-287 -174h-20z" />
<glyph unicode="2" horiz-adv-x="970" d="M84 2v201q0 94 20.5 171t65.5 145.5t112.5 131t163.5 125.5q143 96 203 179t60 188q0 248 -275 248q-125 0 -291 -52l-22 142q100 29 185 41t163 12q403 0 403 -377q0 -74 -17 -135t-56 -118.5t-98.5 -113t-145.5 -112.5q-84 -61 -142.5 -114.5t-94 -104.5t-52 -106.5 t-16.5 -119.5v-90h624v-141h-790z" />
<glyph unicode="3" horiz-adv-x="927" d="M94 1503q66 16 133.5 24.5t130.5 8.5q211 0 323 -99.5t112 -289.5q0 -141 -63.5 -232.5t-182.5 -126.5v-8q141 -31 214 -129t73 -256q0 -197 -126.5 -304t-355.5 -109q-127 0 -252 28v131h13q43 -12 104.5 -19t116.5 -7q164 0 249 74.5t85 216.5q0 156 -89.5 232.5 t-275.5 76.5h-72v129h70q162 0 244 71.5t82 210.5q0 274 -285 275q-43 0 -99.5 -6t-123.5 -21h-15z" />
<glyph unicode="4" horiz-adv-x="1083" d="M41 455v10l502 1071h12l143 -23l7 -12l-488 -997v-8h473l47 536h117v-536h178v-134h-178v-362h-164v362h-612z" />
<glyph unicode="5" horiz-adv-x="923" d="M96 6v135h37q119 -25 209 -24q334 0 334 325q0 84 -23.5 142.5t-74 95.5t-130 54.5t-192.5 17.5l-125 2l-12 10l55 752h606v-142h-477l-33 -491q154 -2 262.5 -27t177 -77t101.5 -136t33 -203q0 -231 -130.5 -348t-359.5 -117q-117 0 -258 31z" />
<glyph unicode="6" horiz-adv-x="1107" d="M98 672q0 207 40 368.5t119 272t192.5 168t261.5 57.5q55 0 113.5 -8t123.5 -27l-12 -137q-66 18 -118 26.5t-105 8.5q-205 0 -318.5 -158t-132.5 -457q72 68 162 106t182 38q98 0 177 -31t135.5 -88t86 -140t29.5 -186q0 -115 -31.5 -209t-91 -160.5t-143.5 -102.5 t-188 -36q-238 0 -360 174.5t-122 520.5zM258 653q2 -276 81 -407t241 -131q135 0 212.5 99t77.5 271q0 154 -75.5 236t-216.5 82q-80 0 -167 -41t-153 -109z" />
<glyph unicode="7" horiz-adv-x="841" d="M47 1497l14 19h715l29 -91v-55l-469 -1372l-35 -25l-131 27v29l473 1341h-588z" />
<glyph unicode="8" horiz-adv-x="1097" d="M96 379q0 80 19.5 143.5t53.5 112.5t79 86t98 63q-98 53 -154.5 138.5t-56.5 226.5q0 184 112.5 284.5t303.5 100.5q193 0 301.5 -99.5t108.5 -285.5q0 -147 -57.5 -234.5t-153.5 -140.5q115 -53 183 -141t68 -240q0 -188 -119.5 -294.5t-332.5 -106.5t-333 101.5 t-120 285.5zM250 393q0 -133 82 -205.5t217 -72.5t217 70.5t82 197.5q0 72 -20.5 124t-61.5 90t-100.5 64.5t-135.5 49.5l-57 18q-94 -47 -158.5 -123t-64.5 -213zM287 1141q0 -68 21.5 -117t62.5 -86t100 -63.5t133 -47.5l6 -2q88 41 144.5 116t56.5 204t-69.5 196.5 t-192.5 67.5q-121 0 -191.5 -68.5t-70.5 -199.5z" />
<glyph unicode="9" horiz-adv-x="1107" d="M74 1030q0 115 31.5 209t91 160.5t143.5 102.5t188 36q238 0 360 -174t122 -520q0 -207 -40 -369t-119 -272.5t-192.5 -168t-261.5 -57.5q-55 0 -113.5 8.5t-123.5 26.5l12 138q66 -18 118 -26.5t105 -8.5q205 0 318.5 157.5t132.5 456.5q-72 -68 -162 -105.5t-182 -37.5 q-98 0 -177 30.5t-135.5 88t-86 140.5t-29.5 185zM238 1030q0 -154 75.5 -235.5t216.5 -81.5q80 0 167 41t153 108q-2 276 -81 407.5t-241 131.5q-135 0 -212.5 -99.5t-77.5 -271.5z" />
<glyph unicode=":" horiz-adv-x="448" d="M119 96q0 104 106 105q51 0 80 -25.5t29 -79.5q0 -102 -109 -102q-106 0 -106 102zM119 1010q0 104 106 104q51 0 80 -25.5t29 -78.5q0 -103 -109 -103q-106 0 -106 103z" />
<glyph unicode=";" horiz-adv-x="497" d="M88 -297l92 494h168l-135 -514zM154 1010q0 104 106 104q51 0 80 -25.5t29 -78.5q0 -103 -109 -103q-106 0 -106 103z" />
<glyph unicode="&#x3c;" horiz-adv-x="1024" d="M84 692v117l813 358v-137l-641 -282l637 -279v-137z" />
<glyph unicode="=" horiz-adv-x="1042" d="M127 444v129h788v-129h-788zM127 885v127h788v-127h-788z" />
<glyph unicode="&#x3e;" horiz-adv-x="1024" d="M127 1030v137l813 -358v-117l-809 -360v137l635 279z" />
<glyph unicode="?" horiz-adv-x="849" d="M59 1483q68 23 146 38t160 15t158.5 -20.5t134 -68.5t92 -125t34.5 -187q0 -104 -35.5 -178t-93 -124.5t-128 -81t-140.5 -49.5l-2 -301v-36h-121v36l-10 390q63 16 129 38.5t120 60.5t89 94t35 140q0 78 -24.5 131.5t-64.5 85t-91.5 46t-104.5 14.5q-66 0 -134.5 -13.5 t-127.5 -33.5zM225 96q0 100 103 101q47 0 75.5 -27t28.5 -74t-28.5 -73.5t-75.5 -26.5q-49 0 -76 26.5t-27 73.5z" />
<glyph unicode="@" horiz-adv-x="1669" d="M90 537q0 205 56.5 363.5t158 266t243.5 162.5t314 55q184 0 317.5 -53t218.5 -151.5t126 -238.5t41 -312q0 -240 -85 -381.5t-255 -141.5q-84 0 -140.5 40t-68.5 145h-10q-29 -45 -67 -78t-80 -54.5t-83 -31.5t-78 -10q-72 0 -123 28.5t-82.5 77.5t-47 113.5 t-15.5 136.5q0 117 34 215t96.5 170t150.5 113t196 41q115 0 289 -70l-74 -430q-8 -41 -14 -81t-6 -77q0 -63 27.5 -103t99.5 -40q109 0 163 111.5t54 306.5q0 147 -34 267t-104.5 203t-181 128t-264.5 45q-145 0 -266 -48t-207 -141.5t-134 -230.5t-48 -315q0 -193 49 -327 t133 -218t192.5 -122t229.5 -38q88 0 184.5 18.5t194.5 51.5l39 -103q-104 -35 -211 -56.5t-207 -21.5q-143 0 -273 44.5t-229.5 142.5t-159 252.5t-59.5 376.5zM547 473q0 -49 9 -94t28.5 -80t51.5 -55.5t77 -20.5q39 0 86 16.5t90 52.5t75.5 95t47.5 145l57 345 q-92 29 -162 28q-82 0 -148.5 -32.5t-113.5 -90t-72.5 -137.5t-25.5 -172z" />
<glyph unicode="A" horiz-adv-x="1218" d="M14 0v12l475 1504h238l477 -1504v-12h-157l-150 459h-580l-145 -459h-158zM356 598h504l-172 541l-72 237h-16l-72 -237z" />
<glyph unicode="B" horiz-adv-x="1212" d="M160 10v1497q137 14 227 21.5t174 7.5q270 0 395 -99.5t125 -310.5q0 -141 -63.5 -232t-179.5 -116v-8q137 -23 213.5 -120t76.5 -251q0 -211 -137 -315t-407 -104q-49 0 -104.5 2t-112 6t-109.5 10t-98 12zM315 127q18 -4 49 -7t69 -5t79 -4t82 -2q364 2 364 297 q0 158 -89 227t-291 69h-263v-575zM315 829h258q92 0 157 15.5t104.5 50.5t58 89t18.5 134q0 147 -80.5 216t-259.5 69q-72 0 -132 -3t-124 -14v-557z" />
<glyph unicode="C" horiz-adv-x="1069" d="M94 756q0 203 38 350t117 242.5t199.5 140.5t286.5 45q57 0 125 -7t139 -20v-139q-59 10 -122.5 16.5t-120.5 6.5q-131 0 -224.5 -34t-154 -110t-88 -196.5t-27.5 -294.5q0 -168 28.5 -288t87 -196.5t149.5 -112.5t218 -36q23 0 56 2t67.5 5t68.5 8t62 12v-138 q-53 -16 -120.5 -24t-141.5 -8q-330 2 -486.5 190t-156.5 586z" />
<glyph unicode="D" horiz-adv-x="1296" d="M160 -8v1513q104 16 195 23.5t163 7.5q356 0 521 -188.5t165 -591.5q0 -207 -43 -354.5t-134 -244t-231 -141.5t-335 -45q-80 0 -156 5.5t-145 15.5zM324 125q55 -6 97 -9t85 -3q272 0 400 153.5t128 489.5q0 170 -28.5 290.5t-89 198.5t-155.5 114t-229 36 q-51 0 -105 -4.5t-103 -12.5v-1253z" />
<glyph unicode="E" horiz-adv-x="1110" d="M160 0v1516h850v-142h-686v-536h624v-142h-624v-555h704v-141h-868z" />
<glyph unicode="F" horiz-adv-x="1046" d="M160 0v1516h823v-142h-659v-549h608v-141h-608v-684h-164z" />
<glyph unicode="G" horiz-adv-x="1210" d="M94 756q0 403 162 590.5t510 187.5q66 0 152 -10.5t169 -28.5v-141q-94 20 -167.5 28.5t-139.5 8.5q-139 0 -237.5 -35t-161 -112t-91 -196.5t-28.5 -291.5q0 -166 28.5 -286t88 -196.5t152 -113.5t221.5 -37q35 0 85 4t103 12v631h154v-750q-102 -20 -187.5 -30 t-163.5 -10q-336 2 -492.5 190t-156.5 586z" />
<glyph unicode="H" horiz-adv-x="1376" d="M160 0v1516h164v-670h727v670h163v-1516h-163v702h-727v-702h-164z" />
<glyph unicode="I" horiz-adv-x="485" d="M160 0v1516h164v-1516h-164z" />
<glyph unicode="J" horiz-adv-x="485" d="M-2 -326q49 106 81 190.5t51.5 164.5t26.5 163.5t7 186.5v1137h164v-1147q0 -98 -12.5 -189.5t-39 -181.5t-68.5 -183.5t-102 -197.5z" />
<glyph unicode="K" horiz-adv-x="1224" d="M160 0v1516h164v-672h213l452 672h191l-463 -682l-66 -54v-10l70 -49l498 -721h-189l-483 700h-223v-700h-164z" />
<glyph unicode="L" horiz-adv-x="921" d="M160 0v1516h164v-1375h571v-141h-735z" />
<glyph unicode="M" horiz-adv-x="1720" d="M160 0v1516h225l385 -1010l84 -248h12l84 248l385 1010h226v-1516h-156v1270h-12l-103 -287l-352 -917h-158l-352 917l-104 287h-11v-1270h-153z" />
<glyph unicode="N" horiz-adv-x="1423" d="M160 0v1516h149l692 -1067l99 -173h12v1240h152v-1516h-152l-688 1061l-100 180l-13 -2v-1239h-151z" />
<glyph unicode="O" horiz-adv-x="1347" d="M94 756q0 393 145.5 586.5t432.5 193.5q289 0 435 -193.5t146 -586.5q0 -389 -146 -582.5t-435 -193.5q-287 0 -432.5 193.5t-145.5 582.5zM260 756q0 -330 99.5 -481.5t312.5 -151.5q217 0 315 151.5t98 481.5t-100 484.5t-313 154.5t-312.5 -154t-99.5 -485z" />
<glyph unicode="P" horiz-adv-x="1161" d="M160 0v1505q176 33 340 33q309 0 453.5 -125t144.5 -397t-145.5 -397t-460.5 -125q-80 0 -168 6v-500h-164zM324 647q41 -4 94 -9t100 -5q219 0 315.5 90t96.5 293t-94.5 292t-309.5 89q-47 0 -100 -4t-102 -13v-733z" />
<glyph unicode="Q" horiz-adv-x="1341" d="M90 756q0 780 578 780q291 0 436 -195.5t145 -584.5q0 -356 -135 -541.5t-399 -198.5v-14q117 -35 243.5 -55.5t290.5 -34.5l-55 -139q-307 55 -518 123.5t-341 179t-187.5 273.5t-57.5 407zM256 756q0 -332 99.5 -483.5t312.5 -151.5q211 0 313 153.5t102 481.5 q0 332 -100 486.5t-315 154.5q-213 0 -312.5 -153.5t-99.5 -487.5z" />
<glyph unicode="R" horiz-adv-x="1191" d="M160 0v1505q170 33 340 33q311 0 454.5 -117.5t143.5 -373.5q0 -180 -71 -290t-220 -159l321 -598h-178l-293 565q-37 -4 -75.5 -6t-79.5 -2q-39 0 -87 3t-91 7v-567h-164zM324 709q43 -6 95 -10.5t99 -4.5q219 0 315.5 82t96.5 271q0 186 -94.5 268t-309.5 82 q-41 0 -95 -4t-107 -13v-671z" />
<glyph unicode="S" horiz-adv-x="1038" d="M76 43l8 141q39 -14 90 -26.5t104.5 -21.5t106.5 -14t98 -5q156 0 239 69.5t83 198.5q0 61 -21.5 107.5t-62.5 82t-101.5 64.5t-138.5 57q-98 35 -169.5 73t-120 88t-71 115.5t-22.5 153.5q0 94 33 171t94.5 131.5t147.5 84t192 29.5q78 0 163 -11t183 -36l-8 -139 q-92 23 -177 34t-151 11q-143 0 -227 -74t-84 -201q0 -55 17.5 -96t56.5 -75.5t98.5 -63.5t143.5 -60q94 -35 167.5 -73.5t123 -89t75 -118t25.5 -159.5q0 -199 -124 -308.5t-347 -109.5q-47 0 -102.5 5.5t-112 14.5t-110.5 21.5t-99 28.5z" />
<glyph unicode="T" horiz-adv-x="1058" d="M31 1370v146h997v-146h-416v-1370h-166v1370h-415z" />
<glyph unicode="U" horiz-adv-x="1378" d="M147 600v916h164v-912q0 -256 91.5 -368.5t285.5 -112.5q197 0 288 112.5t91 368.5v912h166v-916q0 -162 -31 -279.5t-96.5 -193.5t-169 -111.5t-248.5 -35.5t-247.5 35.5t-167 111.5t-95.5 193.5t-31 279.5z" />
<glyph unicode="V" horiz-adv-x="1230" d="M12 1516h166l352 -1076l78 -276h15l82 276l350 1076h164l-492 -1516h-221z" />
<glyph unicode="W" horiz-adv-x="1880" d="M33 1516h176l244 -1049l57 -266h14l62 266l272 1049h176l258 -1049l60 -266h14l61 266l256 1049h177l-396 -1516h-207l-260 1038l-47 246h-12l-49 -248l-273 -1036h-208z" />
<glyph unicode="X" horiz-adv-x="1220" d="M12 0l492 772l-473 744h188l371 -592l20 -41h8l21 41l369 592h182l-477 -744l499 -772h-188l-393 621l-21 36h-8l-18 -36l-387 -621h-185z" />
<glyph unicode="Y" horiz-adv-x="1171" d="M2 1516h180l346 -721l50 -121h16l49 121l348 721h178l-499 -1002v-514h-164v508z" />
<glyph unicode="Z" horiz-adv-x="1050" d="M61 0v131l713 1229v10h-694v146h891v-130l-715 -1230v-13h731v-143h-926z" />
<glyph unicode="[" horiz-adv-x="618" d="M158 -328v2106h403v-121h-266v-1864h266v-121h-403z" />
<glyph unicode="\" horiz-adv-x="647" d="M61 1516h138l385 -1762h-135z" />
<glyph unicode="]" horiz-adv-x="618" d="M57 -207h267v1864h-267v121h402v-2106h-402v121z" />
<glyph unicode="^" horiz-adv-x="817" d="M84 985l260 631h127l260 -631h-119l-200 504h-9l-200 -504h-119z" />
<glyph unicode="_" d="M92 -123h889v-131h-889v131z" />
<glyph unicode="`" horiz-adv-x="483" d="M66 1645h170l145 -371l-117 -21z" />
<glyph unicode="a" horiz-adv-x="970" d="M66 281q0 156 96 238.5t301 98.5l219 17v104q0 139 -53.5 195.5t-188.5 56.5q-55 0 -134 -9t-150 -26l-15 129q180 35 328 35q193 0 283 -85t90 -265v-770h-133l-17 135h-12q-76 -59 -162 -102t-178 -43q-129 0 -201.5 76.5t-72.5 214.5zM229 293q0 -174 166 -174 q35 0 73 12t76 30.5t72.5 40t65.5 40.5v282l-182 -16q-147 -14 -209 -62.5t-62 -152.5z" />
<glyph unicode="b" d="M135 31v1624h162v-664q109 133 303 133q193 0 290 -137t97 -414q0 -127 -28.5 -235.5t-89 -187t-156 -123.5t-228.5 -47q-160 0 -350 51zM297 125q101 -23 195 -23q166 0 247.5 110t81.5 349q0 229 -64.5 331.5t-199.5 102.5q-51 0 -98 -16t-83 -47t-57.5 -75t-21.5 -99 v-633z" />
<glyph unicode="c" horiz-adv-x="845" d="M86 553q0 573 473 573q90 0 211 -28v-135q-53 12 -101 17t-96 5q-166 0 -243.5 -103.5t-77.5 -328.5q0 -223 77 -328.5t242 -105.5q47 0 93.5 6t105.5 18v-135q-45 -12 -101.5 -20t-109.5 -8q-240 0 -356.5 140t-116.5 433z" />
<glyph unicode="d" horiz-adv-x="1075" d="M86 543q0 287 129 434t363 147q49 0 96 -4t104 -12v547h160v-1655h-143l-15 119h-8q-102 -137 -295 -137q-197 0 -294 137t-97 424zM250 555q0 -229 66.5 -337.5t199.5 -108.5q51 0 98.5 16t84 48t58 77t21.5 102v627q-55 10 -103 16t-102 6q-160 0 -241.5 -107.5 t-81.5 -338.5z" />
<glyph unicode="e" horiz-adv-x="983" d="M86 535q0 289 113.5 439t335.5 150q184 0 276 -121.5t92 -361.5q0 -51 -3 -85t-7 -64h-645q10 -195 85 -286t222 -91q137 0 295 61l10 -131q-68 -29 -151.5 -46t-165.5 -17q-223 0 -340 142t-117 411zM250 614h504q-4 203 -57.5 292t-166.5 89q-258 0 -280 -381z" />
<glyph unicode="f" horiz-adv-x="634" d="M33 967v139h182v72q0 135 20.5 224t70.5 144.5t134 82t211 34.5l8 -129q-86 -8 -141 -25.5t-87 -54.5t-44 -99.5t-12 -156.5v-92h233v-139h-233v-967h-162v967h-180z" />
<glyph unicode="g" d="M86 545q0 285 129 432t363 147q90 0 176 -11t186 -40v-950q0 -156 -30.5 -264.5t-91 -177t-146.5 -100.5t-197 -32q-78 0 -155.5 12.5t-149.5 35.5l14 133q143 -49 277 -49q158 0 238.5 91t82.5 310v53h-8q-102 -137 -295 -137q-199 0 -296 133t-97 414zM252 557 q0 -223 65.5 -328.5t198.5 -105.5q51 0 98.5 16.5t84 47t58 73.5t21.5 98v621q-57 10 -104 16t-99 6q-160 0 -241.5 -107.5t-81.5 -336.5z" />
<glyph unicode="h" horiz-adv-x="1069" d="M137 0v1655h160v-670q123 72 213 106.5t174 34.5q131 0 192.5 -69.5t61.5 -225.5v-831h-160v786q0 106 -36.5 151.5t-114.5 45.5q-70 0 -153 -29.5t-177 -85.5v-868h-160z" />
<glyph unicode="i" horiz-adv-x="438" d="M117 1450q0 100 102 100q104 0 105 -100q-1 -102 -105 -102q-102 0 -102 102zM139 0v1106h160v-1106h-160z" />
<glyph unicode="j" horiz-adv-x="434" d="M0 -403q72 137 105.5 291.5t33.5 349.5v65.5v157.5v203.5v206t-1 162t-1 73.5h162v-928q-2 -164 -51 -328.5t-135 -300.5zM113 1450q0 100 104 100t105 -100q-1 -102 -105 -102t-104 102z" />
<glyph unicode="k" horiz-adv-x="985" d="M137 0v1655h160v-1026h156l323 477h178l-360 -518l-33 -19v-4l35 -20l393 -545h-180l-360 508h-152v-508h-160z" />
<glyph unicode="l" horiz-adv-x="442" d="M141 0v1655h162v-1655h-162z" />
<glyph unicode="m" horiz-adv-x="1648" d="M137 0v1106h131l13 -123h8q111 74 197.5 108.5t166.5 34.5q184 0 232 -145h10q111 78 199 111.5t170 33.5q131 0 192.5 -69.5t61.5 -225.5v-831h-160v786q0 104 -37 150.5t-115 46.5q-66 0 -140.5 -28.5t-158.5 -82.5v-872h-159v786q0 104 -37 150.5t-115 46.5 q-66 0 -141.5 -29.5t-159.5 -83.5v-870h-158z" />
<glyph unicode="n" horiz-adv-x="1069" d="M137 0v1106h135l13 -123h10q123 76 214 109.5t177 33.5q129 0 190.5 -69.5t61.5 -225.5v-831h-160v786q0 106 -36.5 151.5t-114.5 45.5q-72 0 -154 -29.5t-174 -85.5v-868h-162z" />
<glyph unicode="o" d="M84 553q0 281 115.5 427t337.5 146q221 0 335.5 -146t114.5 -427t-114.5 -426t-335.5 -145q-223 0 -338 145t-115 426zM250 553q0 -229 68.5 -333.5t218.5 -104.5t218 104.5t68 333.5t-69.5 333.5t-216.5 104.5q-150 0 -218.5 -104.5t-68.5 -333.5z" />
<glyph unicode="p" horiz-adv-x="1075" d="M137 -451v1557h144l10 -117h10q53 66 129 100.5t172 34.5q193 0 290 -137t97 -414q0 -129 -28.5 -237.5t-90 -187t-155.5 -123.5t-223 -45q-49 0 -98.5 5t-94.5 13v-449h-162zM299 127q101 -23 197 -23q166 0 246.5 109t80.5 348q0 229 -64.5 332.5t-199.5 103.5 q-51 0 -98 -16t-83 -47t-57.5 -76t-21.5 -102v-629z" />
<glyph unicode="q" d="M86 543q0 283 128 432t370 149q92 0 182 -10t172 -33v-1532h-158v570q-113 -137 -303 -137q-391 0 -391 561zM250 557q0 -229 64.5 -338.5t201.5 -109.5q53 0 100.5 17t83 49t56 77t20.5 100v627q-66 12 -110.5 17t-90.5 5q-166 0 -245.5 -107.5t-79.5 -336.5z" />
<glyph unicode="r" horiz-adv-x="694" d="M137 0v1106h135l13 -139h10q63 45 152.5 90t181.5 67h43v-163h-62q-90 -14 -171 -44t-140 -71v-846h-162z" />
<glyph unicode="s" horiz-adv-x="829" d="M82 23v133q78 -23 154.5 -36.5t148.5 -13.5q104 0 159.5 49.5t55.5 139.5q0 86 -49 131t-143 68q-53 12 -108.5 27.5t-101.5 48t-76 91t-30 156.5q0 147 93.5 230t258.5 83q59 0 118 -7t155 -27l-4 -133q-88 20 -142.5 28t-103.5 8q-104 0 -162.5 -47t-58.5 -131 q0 -51 16.5 -83.5t45 -53t67.5 -33t82 -24.5q66 -16 121 -40t95 -61t61.5 -90t21.5 -133q0 -152 -97.5 -239t-265.5 -87q-66 0 -137.5 11.5t-173.5 34.5z" />
<glyph unicode="t" horiz-adv-x="722" d="M29 963v143h215l22 276l129 21v-297h295v-143h-295v-644q0 -198 172 -198h2q25 0 57.5 3t63.5 13v-131q-84 -18 -160 -18q-295 0 -294 301v674h-207z" />
<glyph unicode="u" horiz-adv-x="1067" d="M129 274v832h162v-789q0 -109 33.5 -150.5t119.5 -41.5q78 0 155 31.5t171 91.5v858h162v-1106h-137l-13 123h-8q-63 -39 -114.5 -65.5t-95.5 -44t-85 -25.5t-84 -8q-135 0 -200.5 71.5t-65.5 222.5z" />
<glyph unicode="v" horiz-adv-x="1009" d="M29 1092v14h168l266 -834l35 -129h16l35 129l268 834h164v-14l-373 -1092h-207z" />
<glyph unicode="w" horiz-adv-x="1460" d="M43 1096v10h156l172 -762l32 -160h15l37 160l194 762h162l197 -762l39 -160h14l33 160l170 762h151v-10l-266 -1096h-182l-205 766l-25 125h-14l-25 -125l-200 -766h-185z" />
<glyph unicode="x" horiz-adv-x="1007" d="M23 0v16l370 557l-350 521v12h172l238 -367l49 -80h10l45 80l236 367h172v-12l-351 -533l371 -545v-16h-172l-256 399l-51 82h-10l-50 -82l-251 -399h-172z" />
<glyph unicode="y" horiz-adv-x="1017" d="M27 1092v14h166l276 -793l35 -135h10l37 135l278 793h166v-14l-561 -1543l-155 31l-3 14l150 410z" />
<glyph unicode="z" horiz-adv-x="876" d="M66 0v109l530 852v10h-512v135h709v-105l-531 -854v-10h551v-137h-747z" />
<glyph unicode="{" horiz-adv-x="696" d="M49 670v127q76 0 116 55t40 160v534q0 131 47 181.5t172 50.5q20 0 53 -1t64.5 -3t58.5 -3.5t35 -3.5v-110h-184q-59 0 -83 -22.5t-24 -82.5v-571q0 -94 -37 -160.5t-98 -89.5q61 -18 98 -84.5t37 -159.5v-575q0 -59 23.5 -83t83.5 -24h184v-110q-8 -2 -34 -4t-58.5 -3 t-65.5 -2t-53 -1q-61 0 -103 11t-68 38.5t-37 73t-11 110.5v537q0 104 -40 159.5t-116 55.5z" />
<glyph unicode="|" horiz-adv-x="471" d="M158 -451v2106h153v-2106h-153z" />
<glyph unicode="}" horiz-adv-x="696" d="M61 -195h185q61 0 84.5 24t23.5 83v575q0 92 37 159t98 85q-61 23 -98 89.5t-37 160.5v571q0 59 -23.5 82t-84.5 23h-185v110q8 2 35 3.5t59.5 3.5t65.5 3t53 1q125 0 172.5 -50.5t47.5 -181.5v-534q0 -104 38.5 -159.5t114.5 -55.5v-127q-76 0 -114.5 -55.5 t-38.5 -159.5v-537q0 -66 -11.5 -111t-37 -72.5t-67.5 -38.5t-104 -11q-20 0 -53 1t-65.5 2t-59 3t-35.5 4v110z" />
<glyph unicode="~" horiz-adv-x="1140" d="M113 582q47 57 86 96t72.5 62.5t66.5 32.5t70 9q53 0 94 -23.5t77.5 -52t73.5 -52t82 -23.5q53 0 104.5 39t80.5 100l108 -57q-20 -41 -51 -79t-68 -68.5t-79 -49t-87 -18.5q-55 0 -99 23.5t-82 53t-71.5 53t-70.5 23.5q-51 0 -98.5 -33.5t-110.5 -111.5z" />
<glyph unicode="&#xa1;" horiz-adv-x="440" d="M123 1004q0 47 27.5 72.5t74.5 25.5t75 -25.5t28 -72.5t-28 -74t-75 -27t-74.5 26.5t-27.5 74.5zM135 -389l33 1096v26h104v-26l31 -1096v-21h-168v21z" />
<glyph unicode="&#xa2;" horiz-adv-x="880" d="M86 553q0 520 391 567v234h117v-230q41 -2 85 -9t91 -17v-135q-53 12 -101 17t-96 5q-166 0 -243.5 -103.5t-77.5 -328.5q0 -223 77 -328.5t242 -105.5q47 0 93.5 6t105.5 18v-135q-39 -10 -85 -17t-91 -9v-226h-117v228q-391 45 -391 569z" />
<glyph unicode="&#xa3;" horiz-adv-x="1138" d="M88 0v145h250v543h-250v133h250v260q0 227 92 337t301 110q133 0 326 -58l-19 -137q-78 25 -152.5 38t-131.5 13q-139 0 -195.5 -70.5t-56.5 -236.5v-256h375v-133h-375v-543h526v-145h-940z" />
<glyph unicode="&#xa4;" horiz-adv-x="1153" d="M100 365l109 114l104 72q-43 86 -43 207t43 207l-104 73l-109 113l84 82l113 -109l63 -92q82 98 220 98q129 0 213 -96l63 90l115 109l82 -82l-109 -113l-106 -73q20 -43 31.5 -95.5t11.5 -111.5t-11.5 -111.5t-31.5 -95.5l106 -72l109 -114l-82 -82l-115 108l-63 90 q-82 -98 -218 -98q-133 0 -217 96l-61 -88l-113 -108zM387 758q0 -125 51 -193.5t137 -68.5t137.5 67.5t51.5 194.5q0 129 -51 194.5t-138 65.5q-86 0 -137 -65.5t-51 -194.5z" />
<glyph unicode="&#xa5;" horiz-adv-x="1265" d="M51 1516h180l347 -721l49 -121h16l49 121l348 721h179l-445 -889h279v-121h-334v-180h334v-121h-334v-205h-164v205h-352v121h352v180h-352v121h293z" />
<glyph unicode="&#xa6;" horiz-adv-x="456" d="M150 418h155v-869h-155v869zM150 786v869h155v-869h-155z" />
<glyph unicode="&#xa7;" horiz-adv-x="882" d="M106 23v129q78 -23 156 -34.5t148 -11.5q104 0 159.5 49.5t55.5 139.5q0 86 -49.5 131t-143.5 68q-53 12 -108.5 27.5t-101.5 48t-75.5 91t-29.5 156.5q0 123 69 203q-33 33 -51 83t-18 128q0 147 94 230t260 83q57 0 116.5 -8t151.5 -29l-2 -131q-90 20 -143 28.5 t-100 8.5q-106 0 -164 -47t-58 -131q0 -51 16.5 -84t45 -53.5t66.5 -33.5t81 -24q66 -18 121 -40.5t95 -59.5t61.5 -91t21.5 -134q0 -121 -67 -205q68 -74 67 -207q0 -150 -97 -238t-265 -88q-63 0 -135 11.5t-177 34.5zM268 823q0 -53 15.5 -85.5t42 -54t61.5 -35t72 -25.5 q35 -10 68.5 -23t62.5 -27q39 51 39 132q0 88 -44 134t-130 70q-33 10 -68 18.5t-65 24.5q-53 -49 -54 -129z" />
<glyph unicode="&#xa8;" horiz-adv-x="864" d="M115 1397q0 92 96 92q94 0 94 -92q0 -94 -94 -94q-96 0 -96 94zM528 1397q0 92 97 92q94 0 94 -92q0 -94 -94 -94q-96 0 -97 94z" />
<glyph unicode="&#xa9;" horiz-adv-x="1701" d="M90 758q0 174 54.5 318.5t154.5 246.5t240.5 158.5t312.5 56.5t311.5 -56.5t239.5 -158.5t154.5 -246.5t54.5 -318.5q0 -176 -54.5 -319.5t-154.5 -246t-239.5 -159t-311.5 -56.5t-312.5 56.5t-240.5 159t-154.5 246t-54.5 319.5zM201 758q0 -152 46 -277t131 -213 t204.5 -136t269.5 -48q147 0 268 48t206 136t131 213t46 277t-46 276.5t-131 213.5t-206 137.5t-268 48.5q-150 0 -269.5 -48.5t-204.5 -137.5t-131 -214t-46 -276zM504 750q0 213 102.5 318.5t276.5 105.5q47 0 91 -5.5t85 -15.5v-109q-41 8 -83 13.5t-81 5.5 q-129 0 -197.5 -77t-68.5 -234q0 -160 70.5 -234t193.5 -74q37 0 80 5.5t90 13.5v-107q-84 -22 -180 -22q-174 0 -276.5 103.5t-102.5 312.5z" />
<glyph unicode="&#xaa;" horiz-adv-x="806" d="M82 928q0 104 72.5 166.5t214.5 74.5l180 15v63q0 47 -8.5 79t-28.5 51.5t-55 27.5t-88 8q-35 0 -85.5 -4t-123.5 -16l-13 110q156 25 250 25q154 0 221.5 -60.5t67.5 -193.5v-553h-117l-8 96h-8q-76 -53 -137.5 -78.5t-118.5 -25.5q-98 0 -156.5 58t-58.5 157zM217 940 q0 -121 121 -121q41 0 89 18.5t122 59.5v193l-96 -7q-133 -10 -184.5 -41.5t-51.5 -101.5z" />
<glyph unicode="&#xab;" horiz-adv-x="1032" d="M72 549v8l250 487h167l-249 -487v-8l249 -488h-167zM532 549v8l250 487h168l-250 -487v-8l250 -488h-168z" />
<glyph unicode="&#xac;" horiz-adv-x="1517" d="M113 733v139h1271v-639h-157v500h-1114z" />
<glyph unicode="&#xad;" horiz-adv-x="768" d="M121 506v135h526v-135h-526z" />
<glyph unicode="&#xae;" horiz-adv-x="1443" d="M94 913q0 137 46 252t129 199t199 131t253 47t254 -47t199.5 -131t130 -198.5t47.5 -252.5q0 -137 -47.5 -251.5t-130 -197.5t-199.5 -130t-254 -47t-253 47t-199 130t-129 197.5t-46 251.5zM190 913q0 -117 39 -215t109 -168.5t168 -109.5t215 -39q119 0 217 39 t169 109.5t109.5 169t38.5 214.5q0 117 -38.5 215.5t-109.5 169t-169 110.5t-217 40q-117 0 -215 -40t-168 -110.5t-109 -169t-39 -215.5zM494 580v686q53 8 102 12t90 4q160 0 234.5 -53t74.5 -168q0 -156 -145 -201l-2 -6l172 -274h-107l-157 254l-168 2v-256h-94z M588 922q16 -2 46.5 -3t57.5 -1q207 0 207 141q0 72 -47 105.5t-156 33.5q-23 0 -51.5 -1t-56.5 -5v-270z" />
<glyph unicode="&#xaf;" horiz-adv-x="811" d="M111 1321v119h575v-119h-575z" />
<glyph unicode="&#xb0;" horiz-adv-x="839" d="M82 1147q0 82 25.5 152.5t69.5 123t106.5 81t136.5 28.5t135 -28.5t106.5 -81t70 -123t24.5 -152.5q0 -84 -24.5 -153.5t-70 -121t-106.5 -80t-135 -28.5t-136.5 28.5t-106.5 80t-69.5 121t-25.5 153.5zM190 1147q0 -123 59.5 -200t170.5 -77t169 77t58 200t-58.5 200.5 t-168.5 77.5q-111 0 -170.5 -77.5t-59.5 -200.5z" />
<glyph unicode="&#xb1;" horiz-adv-x="1056" d="M129 815v125h336v346h125v-346h336v-125h-336v-342h-125v342h-336zM131 186v125h795v-125h-795z" />
<glyph unicode="&#xb2;" horiz-adv-x="761" d="M72 616v158q0 131 63.5 230.5t210.5 195.5q104 70 146.5 127t42.5 125q0 166 -193 166q-45 0 -98.5 -9.5t-124.5 -27.5l-21 123q78 23 144.5 33t124.5 10q313 0 313 -285q0 -106 -54.5 -186t-176.5 -164q-117 -84 -168.5 -154.5t-51.5 -160.5v-56h451v-125h-608z" />
<glyph unicode="&#xb3;" horiz-adv-x="722" d="M78 1722q53 12 106.5 19.5t100.5 7.5q162 0 246.5 -76t84.5 -219q0 -96 -45 -162.5t-129 -97.5q203 -59 203 -283q0 -147 -94 -228t-268 -81q-98 0 -199 23v125h18q35 -8 79 -13.5t85 -5.5q117 0 176.5 50t59.5 143q0 207 -260 206h-60v117h62q111 0 169 49.5t58 141.5 q0 182 -199 182q-33 0 -74.5 -5t-88.5 -16h-21z" />
<glyph unicode="&#xb4;" horiz-adv-x="466" d="M86 1264l145 376h168l-198 -391z" />
<glyph unicode="&#xb5;" horiz-adv-x="1120" d="M156 -451v1557h159v-789q0 -199 160 -198q72 0 147.5 29.5t172.5 87.5v870h161v-1106h-135l-14 123h-8q-63 -39 -113.5 -65.5t-94.5 -44t-85 -25.5t-84 -8q-31 0 -57.5 4t-49.5 10v-445h-159z" />
<glyph unicode="&#xb6;" horiz-adv-x="1062" d="M72 1034q0 137 28.5 231.5t82 152t128 83t166.5 25.5q43 0 81 -5t85 -16v-1505h-104v545q-14 -2 -34 -2h-36q-90 0 -164 25.5t-126 83t-79.5 151.5t-27.5 231zM762 0v1505h123v-1505h-123z" />
<glyph unicode="&#xb7;" horiz-adv-x="438" d="M113 758q0 55 26.5 79.5t77.5 24.5q106 0 107 -104q-1 -105 -107 -105q-51 0 -77.5 24.5t-26.5 80.5z" />
<glyph unicode="&#xb8;" horiz-adv-x="563" d="M59 -313q29 -10 63 -15.5t62 -5.5q133 0 133 123q0 102 -94 246h121q53 -80 73.5 -141.5t20.5 -120.5q0 -106 -58 -165t-169 -59q-74 0 -152 23v115z" />
<glyph unicode="&#xb9;" horiz-adv-x="583" d="M37 1513l2 23l301 197h102v-1119h-145v947l-207 -119h-22z" />
<glyph unicode="&#xba;" horiz-adv-x="864" d="M88 1118q0 209 91 310.5t255 101.5q160 0 251 -101.5t91 -310.5t-91 -310t-251 -101q-164 0 -255 101t-91 310zM223 1118q0 -86 14.5 -144.5t42 -93t66.5 -49t88 -14.5q45 0 84 14.5t65.5 49t42 93t15.5 144.5t-15.5 144.5t-42 94.5t-65.5 50t-84 14q-49 0 -88 -14 t-66.5 -50t-42 -94.5t-14.5 -144.5z" />
<glyph unicode="&#xbb;" horiz-adv-x="1032" d="M82 61l252 488v8l-252 487h168l250 -487v-8l-250 -488h-168zM543 61l252 488v8l-252 487h168l250 -487v-8l-250 -488h-168z" />
<glyph unicode="&#xbc;" horiz-adv-x="1769" d="M51 1309l2 22l301 197h103v-1118h-146v946l-207 -119h-22zM446 0l592 1516h142l-590 -1516h-144zM961 350l368 774l19 6l112 -18l6 -22l-352 -709h330l39 389h96v-389h131v-117h-131v-264h-143v264h-443z" />
<glyph unicode="&#xbd;" horiz-adv-x="1835" d="M51 1309l2 22l301 197h103v-1118h-146v946l-207 -119h-22zM446 0l592 1516h142l-590 -1516h-144zM1130 0v158q0 66 14.5 121t47.5 105t85 98t128 102q55 39 91 69.5t57.5 59t30.5 57.5t9 64q0 168 -188 167q-53 0 -113.5 -10t-113.5 -26l-21 122q160 43 268 43 q313 0 314 -284q0 -53 -11.5 -96t-38 -83t-71.5 -81t-111 -90q-61 -45 -103 -83t-67.5 -75t-37 -75t-11.5 -83v-55h451v-125h-609z" />
<glyph unicode="&#xbe;" horiz-adv-x="1892" d="M100 1518q53 12 106.5 19t100.5 7q162 0 247 -75.5t85 -219.5q0 -96 -45 -162.5t-129 -97.5q203 -59 203 -282q0 -147 -94.5 -228.5t-268.5 -81.5q-98 0 -199 23v125h19q35 -8 79 -13.5t85 -5.5q117 0 176 50.5t59 142.5q0 207 -260 207h-59v116h61q111 0 169.5 49.5 t58.5 141.5q0 182 -199 182q-33 0 -75 -5t-89 -15h-20zM565 0l592 1516h141l-589 -1516h-144zM1090 350l368 774l19 6l112 -18l6 -22l-352 -709h330l39 389h96v-389h131v-117h-131v-264h-143v264h-443z" />
<glyph unicode="&#xbf;" horiz-adv-x="835" d="M59 -20q0 104 36 177.5t93.5 124t128 81t140.5 49.5l2 301v37h121v-37l10 -389q-63 -16 -129 -39t-120 -61t-89 -94t-35 -140q0 -78 24.5 -131.5t64.5 -86t91.5 -46t104.5 -13.5q66 0 134.5 13.5t127.5 33.5l20 -129q-68 -23 -145.5 -38t-159.5 -15q-84 0 -159.5 20.5 t-133 68.5t-92.5 125t-35 188zM412 1018q0 47 28.5 73.5t75.5 26.5q49 0 75.5 -26.5t26.5 -73.5q0 -100 -102 -100q-47 0 -75.5 26.5t-28.5 73.5z" />
<glyph unicode="&#xc0;" horiz-adv-x="1218" d="M14 0v12l475 1504h238l477 -1504v-12h-157l-150 459h-580l-145 -459h-158zM342 1917h170l154 -270l-127 -27zM356 598h504l-172 541l-72 237h-16l-72 -237z" />
<glyph unicode="&#xc1;" horiz-adv-x="1218" d="M14 0v12l475 1504h238l477 -1504v-12h-157l-150 459h-580l-145 -459h-158zM356 598h504l-172 541l-72 237h-16l-72 -237zM537 1630l153 287h170l-196 -297z" />
<glyph unicode="&#xc2;" horiz-adv-x="1218" d="M14 0v12l475 1504h238l477 -1504v-12h-157l-150 459h-580l-145 -459h-158zM315 1661v133l295 150l297 -150v-133l-297 147zM356 598h504l-172 541l-72 237h-16l-72 -237z" />
<glyph unicode="&#xc3;" horiz-adv-x="1218" d="M14 0v12l475 1504h238l477 -1504v-12h-157l-150 459h-580l-145 -459h-158zM266 1743q45 66 104.5 106.5t118.5 40.5q43 0 79 -13t71 -29.5t69.5 -30t73.5 -13.5q74 0 140 80l53 -45q-39 -72 -100.5 -112.5t-122.5 -40.5q-41 0 -77 13t-71 28.5t-69.5 28.5t-71.5 13 q-76 0 -150 -77zM356 598h504l-172 541l-72 237h-16l-72 -237z" />
<glyph unicode="&#xc4;" horiz-adv-x="1218" d="M14 0v12l475 1504h238l477 -1504v-12h-157l-150 459h-580l-145 -459h-158zM285 1769q0 102 104 103q106 0 107 -103q0 -55 -28 -79.5t-79 -24.5q-104 0 -104 104zM356 598h504l-172 541l-72 237h-16l-72 -237zM725 1769q0 102 104 103q49 0 78 -24.5t29 -78.5 q0 -55 -29 -79.5t-78 -24.5q-104 0 -104 104z" />
<glyph unicode="&#xc5;" horiz-adv-x="1218" d="M14 0v12l475 1504h238l477 -1504v-12h-157l-150 459h-580l-145 -459h-158zM356 598h504l-172 541l-72 237h-16l-72 -237zM395 1735q0 92 57.5 154.5t157.5 62.5q98 0 156.5 -62.5t58.5 -154.5t-58.5 -153.5t-156.5 -61.5t-156.5 61t-58.5 154zM485 1735q0 -59 31 -94 t94 -35q59 0 91 34.5t32 94.5q0 59 -30.5 95t-92.5 36q-63 0 -94 -36t-31 -95z" />
<glyph unicode="&#xc6;" horiz-adv-x="1636" d="M10 0v12l531 1504h991v-142h-617l27 -536h537v-142h-531l29 -555h575v-141h-735l-18 457h-465l-160 -457h-164zM385 602h408l-33 778h-98z" />
<glyph unicode="&#xc7;" horiz-adv-x="1069" d="M94 756q0 203 38 350t117 242.5t199.5 140.5t286.5 45q57 0 125 -7t139 -20v-139q-59 10 -122.5 16.5t-120.5 6.5q-131 0 -224.5 -34t-154 -110t-88 -196.5t-27.5 -294.5q0 -168 28.5 -288t87 -196.5t149.5 -112.5t218 -36q23 0 56 2t67.5 5t68.5 8t62 12v-138 q-53 -16 -119.5 -24t-140.5 -8q35 -59 48.5 -108.5t13.5 -98.5q0 -106 -58.5 -165t-169.5 -59q-74 0 -151 23v115q29 -10 62.5 -15.5t62.5 -5.5q133 0 133 123q0 88 -66 199q-268 33 -394 220t-126 548z" />
<glyph unicode="&#xc8;" horiz-adv-x="1110" d="M160 0v1516h850v-142h-686v-536h624v-142h-624v-555h704v-141h-868zM326 1917h170l153 -270l-127 -27z" />
<glyph unicode="&#xc9;" horiz-adv-x="1110" d="M160 0v1516h850v-142h-686v-536h624v-142h-624v-555h704v-141h-868zM512 1630l154 287h170l-197 -297z" />
<glyph unicode="&#xca;" horiz-adv-x="1110" d="M160 0v1516h850v-142h-686v-536h624v-142h-624v-555h704v-141h-868zM293 1661v133l295 150l297 -150v-133l-297 147z" />
<glyph unicode="&#xcb;" horiz-adv-x="1110" d="M160 0v1516h850v-142h-686v-536h624v-142h-624v-555h704v-141h-868zM262 1769q0 102 105 103q106 0 106 -103q0 -55 -27.5 -79.5t-78.5 -24.5q-104 0 -105 104zM702 1769q0 102 105 103q49 0 77.5 -24.5t28.5 -78.5q0 -55 -28.5 -79.5t-77.5 -24.5q-104 0 -105 104z" />
<glyph unicode="&#xcc;" horiz-adv-x="485" d="M-14 1917h170l153 -270l-127 -27zM160 0v1516h164v-1516h-164z" />
<glyph unicode="&#xcd;" horiz-adv-x="485" d="M160 0v1516h164v-1516h-164zM174 1630l154 287h170l-197 -297z" />
<glyph unicode="&#xce;" horiz-adv-x="485" d="M-49 1661v133l295 150l297 -150v-133l-297 147zM160 0v1516h164v-1516h-164z" />
<glyph unicode="&#xcf;" horiz-adv-x="485" d="M-78 1769q0 102 105 103q106 0 106 -103q0 -55 -27.5 -79.5t-78.5 -24.5q-104 0 -105 104zM160 0v1516h164v-1516h-164zM362 1769q0 102 105 103q49 0 77.5 -24.5t28.5 -78.5q0 -55 -28.5 -79.5t-77.5 -24.5q-104 0 -105 104z" />
<glyph unicode="&#xd0;" horiz-adv-x="1323" d="M2 690v133h184v682q104 16 195.5 23.5t163.5 7.5q356 0 521 -188.5t165 -591.5q0 -207 -43 -354.5t-134 -244t-231.5 -141.5t-335.5 -45q-80 0 -155.5 5.5t-145.5 15.5v698h-184zM350 125q55 -6 97 -9t85 -3q272 0 400.5 153.5t128.5 489.5q0 170 -28.5 290.5t-89 198.5 t-156 114t-228.5 36q-51 0 -105.5 -4.5t-103.5 -12.5v-555h314v-133h-314v-565z" />
<glyph unicode="&#xd1;" horiz-adv-x="1423" d="M160 0v1516h149l692 -1067l99 -173h12v1240h152v-1516h-152l-688 1061l-100 180l-13 -2v-1239h-151zM371 1743q45 66 104.5 106.5t118.5 40.5q43 0 79 -13t70.5 -29.5t69.5 -30t74 -13.5q74 0 139 80l53 -45q-39 -72 -100 -112.5t-123 -40.5q-41 0 -77 13t-70.5 28.5 t-69.5 28.5t-72 13q-76 0 -149 -77z" />
<glyph unicode="&#xd2;" horiz-adv-x="1347" d="M94 756q0 393 145.5 586.5t432.5 193.5q289 0 435 -193.5t146 -586.5q0 -389 -146 -582.5t-435 -193.5q-287 0 -432.5 193.5t-145.5 582.5zM260 756q0 -330 99.5 -481.5t312.5 -151.5q217 0 315 151.5t98 481.5t-100 484.5t-313 154.5t-312.5 -154t-99.5 -485zM406 1917 h169l154 -270l-127 -27z" />
<glyph unicode="&#xd3;" horiz-adv-x="1347" d="M94 756q0 393 145.5 586.5t432.5 193.5q289 0 435 -193.5t146 -586.5q0 -389 -146 -582.5t-435 -193.5q-287 0 -432.5 193.5t-145.5 582.5zM260 756q0 -330 99.5 -481.5t312.5 -151.5q217 0 315 151.5t98 481.5t-100 484.5t-313 154.5t-312.5 -154t-99.5 -485zM600 1630 l154 287h170l-197 -297z" />
<glyph unicode="&#xd4;" horiz-adv-x="1347" d="M94 756q0 393 145.5 586.5t432.5 193.5q289 0 435 -193.5t146 -586.5q0 -389 -146 -582.5t-435 -193.5q-287 0 -432.5 193.5t-145.5 582.5zM260 756q0 -330 99.5 -481.5t312.5 -151.5q217 0 315 151.5t98 481.5t-100 484.5t-313 154.5t-312.5 -154t-99.5 -485zM379 1661 v133l295 150l297 -150v-133l-297 147z" />
<glyph unicode="&#xd5;" horiz-adv-x="1347" d="M94 756q0 393 145.5 586.5t432.5 193.5q289 0 435 -193.5t146 -586.5q0 -389 -146 -582.5t-435 -193.5q-287 0 -432.5 193.5t-145.5 582.5zM260 756q0 -330 99.5 -481.5t312.5 -151.5q217 0 315 151.5t98 481.5t-100 484.5t-313 154.5t-312.5 -154t-99.5 -485zM330 1743 q45 66 104.5 106.5t118.5 40.5q43 0 79 -13t70.5 -29.5t69.5 -30t74 -13.5q74 0 139 80l53 -45q-39 -72 -100 -112.5t-123 -40.5q-41 0 -77 13t-70.5 28.5t-69.5 28.5t-72 13q-76 0 -149 -77z" />
<glyph unicode="&#xd6;" horiz-adv-x="1347" d="M94 756q0 393 145.5 586.5t432.5 193.5q289 0 435 -193.5t146 -586.5q0 -389 -146 -582.5t-435 -193.5q-287 0 -432.5 193.5t-145.5 582.5zM260 756q0 -330 99.5 -481.5t312.5 -151.5q217 0 315 151.5t98 481.5t-100 484.5t-313 154.5t-312.5 -154t-99.5 -485zM346 1769 q0 102 105 103q106 0 106 -103q0 -55 -27.5 -79.5t-78.5 -24.5q-104 0 -105 104zM786 1769q0 102 105 103q49 0 77.5 -24.5t28.5 -78.5q0 -55 -28.5 -79.5t-77.5 -24.5q-104 0 -105 104z" />
<glyph unicode="&#xd7;" horiz-adv-x="933" d="M104 485l273 275l-273 272l89 90l272 -274l274 274l90 -90l-274 -274l274 -273l-88 -88l-274 273l-274 -273z" />
<glyph unicode="&#xd8;" horiz-adv-x="1361" d="M51 0l164 223q-113 195 -113 533q0 393 145.5 586.5t432.5 193.5q248 0 393 -150l96 130h142l-166 -224q117 -195 117 -536q0 -389 -146.5 -582.5t-435.5 -193.5q-252 0 -393 147l-94 -127h-142zM268 756q0 -250 54 -389l657 890q-100 137 -299 138q-213 0 -312.5 -153.5 t-99.5 -485.5zM381 256q51 -70 125 -101.5t174 -31.5q215 0 314.5 151.5t99.5 481.5q0 240 -56 391z" />
<glyph unicode="&#xd9;" horiz-adv-x="1378" d="M147 600v916h164v-912q0 -256 91.5 -368.5t285.5 -112.5q197 0 288 112.5t91 368.5v912h166v-916q0 -162 -31 -279.5t-96.5 -193.5t-169 -111.5t-248.5 -35.5t-247.5 35.5t-167 111.5t-95.5 193.5t-31 279.5zM420 1917h170l153 -270l-127 -27z" />
<glyph unicode="&#xda;" horiz-adv-x="1378" d="M147 600v916h164v-912q0 -256 91.5 -368.5t285.5 -112.5q197 0 288 112.5t91 368.5v912h166v-916q0 -162 -31 -279.5t-96.5 -193.5t-169 -111.5t-248.5 -35.5t-247.5 35.5t-167 111.5t-95.5 193.5t-31 279.5zM610 1630l154 287h170l-197 -297z" />
<glyph unicode="&#xdb;" horiz-adv-x="1378" d="M147 600v916h164v-912q0 -256 91.5 -368.5t285.5 -112.5q197 0 288 112.5t91 368.5v912h166v-916q0 -162 -31 -279.5t-96.5 -193.5t-169 -111.5t-248.5 -35.5t-247.5 35.5t-167 111.5t-95.5 193.5t-31 279.5zM389 1661v133l295 150l297 -150v-133l-297 147z" />
<glyph unicode="&#xdc;" horiz-adv-x="1378" d="M147 600v916h164v-912q0 -256 91.5 -368.5t285.5 -112.5q197 0 288 112.5t91 368.5v912h166v-916q0 -162 -31 -279.5t-96.5 -193.5t-169 -111.5t-248.5 -35.5t-247.5 35.5t-167 111.5t-95.5 193.5t-31 279.5zM360 1769q0 102 105 103q106 0 106 -103q0 -55 -27.5 -79.5 t-78.5 -24.5q-104 0 -105 104zM801 1769q0 102 104 103q49 0 78 -24.5t29 -78.5q0 -55 -29 -79.5t-78 -24.5q-104 0 -104 104z" />
<glyph unicode="&#xdd;" horiz-adv-x="1171" d="M2 1516h180l346 -721l50 -121h16l49 121l348 721h178l-499 -1002v-514h-164v508zM518 1630l154 287h170l-197 -297z" />
<glyph unicode="&#xde;" horiz-adv-x="1165" d="M160 0v1516h164v-248q45 4 89 7t89 3q309 0 452.5 -124t143.5 -394q0 -272 -144.5 -396t-459.5 -124q-82 0 -170 6v-246h-164zM324 393q37 -4 94 -8t98 -4q223 0 319.5 88t96.5 291q0 199 -95.5 287t-314.5 88q-41 0 -97 -3.5t-101 -13.5v-725z" />
<glyph unicode="&#xdf;" horiz-adv-x="1175" d="M137 0v1227q0 227 104.5 330.5t327.5 103.5t329 -104.5t106 -329.5v-228h-164q-109 0 -169.5 -46t-60.5 -132q0 -51 16.5 -83.5t46 -54t67.5 -34t81 -22.5q66 -16 121 -40t95 -61t61.5 -90t21.5 -133q0 -150 -98 -238t-264 -88q-66 0 -136.5 11.5t-175.5 34.5v129 q78 -23 156 -34.5t148 -11.5q102 0 157.5 49.5t55.5 139.5q0 86 -48.5 131t-144.5 68q-53 12 -108.5 27.5t-101.5 48t-74.5 91t-28.5 156.5q0 145 97 229t263 84h27v97q0 164 -62.5 231.5t-210.5 67.5q-147 0 -209.5 -67.5t-62.5 -231.5v-1227h-162z" />
<glyph unicode="&#xe0;" horiz-adv-x="970" d="M66 281q0 156 96 238.5t301 98.5l219 17v104q0 139 -53.5 195.5t-188.5 56.5q-55 0 -134 -9t-150 -26l-15 129q180 35 328 35q193 0 283 -85t90 -265v-770h-133l-17 135h-12q-76 -59 -162 -102t-178 -43q-129 0 -201.5 76.5t-72.5 214.5zM229 293q0 -174 166 -174 q35 0 73 12t76 30.5t72.5 40t65.5 40.5v282l-182 -16q-147 -14 -209 -62.5t-62 -152.5zM244 1645h170l145 -371l-117 -21z" />
<glyph unicode="&#xe1;" horiz-adv-x="970" d="M66 281q0 156 96 238.5t301 98.5l219 17v104q0 139 -53.5 195.5t-188.5 56.5q-55 0 -134 -9t-150 -26l-15 129q180 35 328 35q193 0 283 -85t90 -265v-770h-133l-17 135h-12q-76 -59 -162 -102t-178 -43q-129 0 -201.5 76.5t-72.5 214.5zM229 293q0 -174 166 -174 q35 0 73 12t76 30.5t72.5 40t65.5 40.5v282l-182 -16q-147 -14 -209 -62.5t-62 -152.5zM436 1264l146 376h168l-199 -391z" />
<glyph unicode="&#xe2;" horiz-adv-x="970" d="M66 281q0 156 96 238.5t301 98.5l219 17v104q0 139 -53.5 195.5t-188.5 56.5q-55 0 -134 -9t-150 -26l-15 129q180 35 328 35q193 0 283 -85t90 -265v-770h-133l-17 135h-12q-76 -59 -162 -102t-178 -43q-129 0 -201.5 76.5t-72.5 214.5zM203 1294v131l295 150l297 -150 v-131l-295 148zM229 293q0 -174 166 -174q35 0 73 12t76 30.5t72.5 40t65.5 40.5v282l-182 -16q-147 -14 -209 -62.5t-62 -152.5z" />
<glyph unicode="&#xe3;" horiz-adv-x="970" d="M66 281q0 156 96 238.5t301 98.5l219 17v104q0 139 -53.5 195.5t-188.5 56.5q-55 0 -134 -9t-150 -26l-15 129q180 35 328 35q193 0 283 -85t90 -265v-770h-133l-17 135h-12q-76 -59 -162 -102t-178 -43q-129 0 -201.5 76.5t-72.5 214.5zM143 1362q45 66 104.5 103.5 t119.5 37.5q43 0 78.5 -14t70.5 -31.5t68.5 -32t72.5 -14.5q74 0 136 80l59 -51q-39 -72 -100.5 -111t-122.5 -39q-41 0 -77 14.5t-71 33t-69.5 32.5t-71.5 14t-74 -21.5t-69 -57.5zM229 293q0 -174 166 -174q35 0 73 12t76 30.5t72.5 40t65.5 40.5v282l-182 -16 q-147 -14 -209 -62.5t-62 -152.5z" />
<glyph unicode="&#xe4;" horiz-adv-x="970" d="M66 281q0 156 96 238.5t301 98.5l219 17v104q0 139 -53.5 195.5t-188.5 56.5q-55 0 -134 -9t-150 -26l-15 129q180 35 328 35q193 0 283 -85t90 -265v-770h-133l-17 135h-12q-76 -59 -162 -102t-178 -43q-129 0 -201.5 76.5t-72.5 214.5zM190 1397q0 92 97 92 q94 0 94 -92q0 -94 -94 -94q-96 0 -97 94zM229 293q0 -174 166 -174q35 0 73 12t76 30.5t72.5 40t65.5 40.5v282l-182 -16q-147 -14 -209 -62.5t-62 -152.5zM604 1397q0 92 96 92q94 0 95 -92q-1 -94 -95 -94q-96 0 -96 94z" />
<glyph unicode="&#xe5;" horiz-adv-x="970" d="M66 281q0 156 96 238.5t301 98.5l219 17v104q0 139 -53.5 195.5t-188.5 56.5q-55 0 -134 -9t-150 -26l-15 129q180 35 328 35q193 0 283 -85t90 -265v-770h-133l-17 135h-12q-76 -59 -162 -102t-178 -43q-129 0 -201.5 76.5t-72.5 214.5zM229 293q0 -174 166 -174 q35 0 73 12t76 30.5t72.5 40t65.5 40.5v282l-182 -16q-147 -14 -209 -62.5t-62 -152.5zM274 1460q0 92 58.5 153.5t161.5 61.5q100 0 158.5 -61.5t58.5 -153.5t-59.5 -154.5t-157.5 -62.5q-100 0 -160 62.5t-60 154.5zM373 1460q0 -59 31 -94t90 -35t89.5 36t30.5 93 t-30.5 92t-89.5 35t-90 -34.5t-31 -92.5z" />
<glyph unicode="&#xe6;" horiz-adv-x="1581" d="M68 281q0 156 96 237.5t299 97.5l219 19v119q0 129 -55.5 183t-186.5 54q-59 0 -137 -9t-147 -26l-15 129q92 16 175 25.5t153 9.5q250 0 309 -194h13q51 98 136 148t206 50q182 0 275 -121.5t93 -361.5q0 -51 -2 -83t-8 -62h-645q10 -383 307 -383q68 0 141.5 14 t155.5 49l10 -131q-70 -29 -154.5 -46t-162.5 -17q-254 0 -363 190l-12 2q-76 -49 -135.5 -85t-109.5 -57.5t-94 -31.5t-89 -10q-129 0 -200.5 76.5t-71.5 214.5zM231 293q0 -174 166 -174q63 0 136 38t172 103q-6 16 -10.5 50t-7.5 74t-4 79t-1 63l-182 -16 q-147 -12 -208 -62.5t-61 -154.5zM846 608h504q-4 207 -55.5 297t-166.5 90q-131 0 -202.5 -98t-79.5 -289z" />
<glyph unicode="&#xe7;" horiz-adv-x="845" d="M84 553q0 573 473 573q90 0 211 -28v-135q-53 12 -101.5 17t-95.5 5q-166 0 -243.5 -103.5t-77.5 -328.5q0 -223 76.5 -328.5t242.5 -105.5q47 0 93.5 6t105.5 18v-135q-41 -10 -92 -18t-101 -10q35 -59 48.5 -108.5t13.5 -98.5q0 -106 -58 -165t-169 -59q-74 0 -152 23 v115q29 -10 62.5 -15.5t62.5 -5.5q133 0 133 123q0 88 -65 199q-367 57 -367 565z" />
<glyph unicode="&#xe8;" horiz-adv-x="983" d="M86 535q0 289 113.5 439t335.5 150q184 0 276 -121.5t92 -361.5q0 -51 -3 -85t-7 -64h-645q10 -195 85 -286t222 -91q137 0 295 61l10 -131q-68 -29 -151.5 -46t-165.5 -17q-223 0 -340 142t-117 411zM246 1645h170l145 -371l-117 -21zM250 614h504q-4 203 -57.5 292 t-166.5 89q-258 0 -280 -381z" />
<glyph unicode="&#xe9;" horiz-adv-x="983" d="M86 535q0 289 113.5 439t335.5 150q184 0 276 -121.5t92 -361.5q0 -51 -3 -85t-7 -64h-645q10 -195 85 -286t222 -91q137 0 295 61l10 -131q-68 -29 -151.5 -46t-165.5 -17q-223 0 -340 142t-117 411zM250 614h504q-4 203 -57.5 292t-166.5 89q-258 0 -280 -381z M461 1264l145 376h168l-199 -391z" />
<glyph unicode="&#xea;" horiz-adv-x="983" d="M86 535q0 289 113.5 439t335.5 150q184 0 276 -121.5t92 -361.5q0 -51 -3 -85t-7 -64h-645q10 -195 85 -286t222 -91q137 0 295 61l10 -131q-68 -29 -151.5 -46t-165.5 -17q-223 0 -340 142t-117 411zM215 1294v131l295 150l297 -150v-131l-295 148zM250 614h504 q-4 203 -57.5 292t-166.5 89q-258 0 -280 -381z" />
<glyph unicode="&#xeb;" horiz-adv-x="983" d="M86 535q0 289 113.5 439t335.5 150q184 0 276 -121.5t92 -361.5q0 -51 -3 -85t-7 -64h-645q10 -195 85 -286t222 -91q137 0 295 61l10 -131q-68 -29 -151.5 -46t-165.5 -17q-223 0 -340 142t-117 411zM207 1397q0 92 96 92q94 0 94 -92q0 -94 -94 -94q-96 0 -96 94z M250 614h504q-4 203 -57.5 292t-166.5 89q-258 0 -280 -381zM621 1397q0 92 96 92q94 0 94 -92q0 -94 -94 -94q-96 0 -96 94z" />
<glyph unicode="&#xec;" horiz-adv-x="438" d="M-31 1645h170l146 -371l-117 -21zM139 0v1106h160v-1106h-160z" />
<glyph unicode="&#xed;" horiz-adv-x="438" d="M139 0v1106h160v-1106h-160zM168 1264l145 376h168l-198 -391z" />
<glyph unicode="&#xee;" horiz-adv-x="440" d="M-66 1294v131l293 150l293 -150v-131l-293 148zM141 0v1106h160v-1106h-160z" />
<glyph unicode="&#xef;" horiz-adv-x="440" d="M-76 1397q0 92 96 92t97 -92q-1 -94 -97 -94t-96 94zM141 0v1106h160v-1106h-160zM332 1397q0 92 96 92q94 0 94 -92q0 -94 -94 -94q-96 0 -96 94z" />
<glyph unicode="&#xf0;" horiz-adv-x="1083" d="M84 553q0 281 115.5 427t332.5 146q160 0 250 -127q-20 80 -45.5 158t-60.5 156l-260 -35v117l207 26q-31 61 -67 119.5t-77 114.5h170q35 -49 65.5 -102.5t59.5 -110.5l248 35v-117l-197 -27q74 -174 118 -367.5t44 -394.5q0 -291 -114.5 -440t-335.5 -149t-337 145 t-116 426zM250 553q0 -229 68.5 -333.5t218.5 -104.5t218 106.5t68 341.5q0 82 -13 160t-46 137.5t-88 95t-139 35.5q-150 0 -218.5 -104.5t-68.5 -333.5z" />
<glyph unicode="&#xf1;" horiz-adv-x="1069" d="M137 0v1106h135l13 -123h10q123 76 214 109.5t177 33.5q129 0 190.5 -69.5t61.5 -225.5v-831h-160v786q0 106 -36.5 151.5t-114.5 45.5q-72 0 -154 -29.5t-174 -85.5v-868h-162zM195 1362q45 66 104 103.5t119 37.5q43 0 78.5 -14t70.5 -31.5t69 -32t73 -14.5 q74 0 135 80l59 -51q-39 -72 -100.5 -111t-122.5 -39q-41 0 -77 14.5t-70.5 33t-69.5 32.5t-72 14t-73.5 -21.5t-69.5 -57.5z" />
<glyph unicode="&#xf2;" d="M84 553q0 281 115.5 427t337.5 146q221 0 335.5 -146t114.5 -427t-114.5 -426t-335.5 -145q-223 0 -338 145t-115 426zM250 553q0 -229 68.5 -333.5t218.5 -104.5t218 104.5t68 333.5t-69.5 333.5t-216.5 104.5q-150 0 -218.5 -104.5t-68.5 -333.5zM268 1645h170 l146 -371l-117 -21z" />
<glyph unicode="&#xf3;" d="M84 553q0 281 115.5 427t337.5 146q221 0 335.5 -146t114.5 -427t-114.5 -426t-335.5 -145q-223 0 -338 145t-115 426zM250 553q0 -229 68.5 -333.5t218.5 -104.5t218 104.5t68 333.5t-69.5 333.5t-216.5 104.5q-150 0 -218.5 -104.5t-68.5 -333.5zM465 1264l145 376h168 l-198 -391z" />
<glyph unicode="&#xf4;" d="M84 553q0 281 115.5 427t337.5 146q221 0 335.5 -146t114.5 -427t-114.5 -426t-335.5 -145q-223 0 -338 145t-115 426zM231 1294v131l295 150l297 -150v-131l-295 148zM250 553q0 -229 68.5 -333.5t218.5 -104.5t218 104.5t68 333.5t-69.5 333.5t-216.5 104.5 q-150 0 -218.5 -104.5t-68.5 -333.5z" />
<glyph unicode="&#xf5;" d="M84 553q0 281 115.5 427t337.5 146q221 0 335.5 -146t114.5 -427t-114.5 -426t-335.5 -145q-223 0 -338 145t-115 426zM172 1362q45 66 104.5 103.5t118.5 37.5q43 0 79 -14t71 -31.5t68.5 -32t72.5 -14.5q74 0 135 80l60 -51q-39 -72 -100.5 -111t-123.5 -39 q-41 0 -76.5 14.5t-70.5 33t-69.5 32.5t-71.5 14t-74 -21.5t-70 -57.5zM250 553q0 -229 68.5 -333.5t218.5 -104.5t218 104.5t68 333.5t-69.5 333.5t-216.5 104.5q-150 0 -218.5 -104.5t-68.5 -333.5z" />
<glyph unicode="&#xf6;" d="M84 553q0 281 115.5 427t337.5 146q221 0 335.5 -146t114.5 -427t-114.5 -426t-335.5 -145q-223 0 -338 145t-115 426zM221 1397q0 92 96 92q94 0 95 -92q-1 -94 -95 -94q-96 0 -96 94zM250 553q0 -229 68.5 -333.5t218.5 -104.5t218 104.5t68 333.5t-69.5 333.5 t-216.5 104.5q-150 0 -218.5 -104.5t-68.5 -333.5zM635 1397q0 92 96 92q94 0 94 -92q0 -94 -94 -94q-96 0 -96 94z" />
<glyph unicode="&#xf7;" horiz-adv-x="1034" d="M115 696v125h807v-125h-807zM430 426q0 47 26.5 70.5t67.5 23.5t66.5 -24.5t25.5 -69.5t-25.5 -68.5t-66.5 -23.5t-67.5 23.5t-26.5 68.5zM430 1075q0 47 26.5 71.5t67.5 24.5t66.5 -25.5t25.5 -70.5q0 -43 -25.5 -67.5t-66.5 -24.5t-67.5 24.5t-26.5 67.5z" />
<glyph unicode="&#xf8;" horiz-adv-x="1081" d="M49 0l129 168q-88 139 -88 385q0 281 113.5 427t337.5 146q180 0 295 -104l63 84h129l-127 -164q90 -145 90 -389q0 -281 -113.5 -426t-336.5 -145q-182 0 -295 102l-66 -84h-131zM254 553q0 -78 6 -139.5t23 -110.5l462 602q-72 86 -204 86q-154 0 -220.5 -104.5 t-66.5 -333.5zM334 201q68 -86 207 -86q154 0 220 104.5t66 333.5q0 152 -30 250z" />
<glyph unicode="&#xf9;" horiz-adv-x="1067" d="M129 274v832h162v-789q0 -109 33.5 -150.5t119.5 -41.5q78 0 155 31.5t171 91.5v858h162v-1106h-137l-13 123h-8q-63 -39 -114.5 -65.5t-95.5 -44t-85 -25.5t-84 -8q-135 0 -200.5 71.5t-65.5 222.5zM272 1645h170l146 -371l-117 -21z" />
<glyph unicode="&#xfa;" horiz-adv-x="1067" d="M129 274v832h162v-789q0 -109 33.5 -150.5t119.5 -41.5q78 0 155 31.5t171 91.5v858h162v-1106h-137l-13 123h-8q-63 -39 -114.5 -65.5t-95.5 -44t-85 -25.5t-84 -8q-135 0 -200.5 71.5t-65.5 222.5zM471 1264l145 376h168l-198 -391z" />
<glyph unicode="&#xfb;" horiz-adv-x="1067" d="M129 274v832h162v-789q0 -109 33.5 -150.5t119.5 -41.5q78 0 155 31.5t171 91.5v858h162v-1106h-137l-13 123h-8q-63 -39 -114.5 -65.5t-95.5 -44t-85 -25.5t-84 -8q-135 0 -200.5 71.5t-65.5 222.5zM236 1294v131l294 150l297 -150v-131l-295 148z" />
<glyph unicode="&#xfc;" horiz-adv-x="1067" d="M129 274v832h162v-789q0 -109 33.5 -150.5t119.5 -41.5q78 0 155 31.5t171 91.5v858h162v-1106h-137l-13 123h-8q-63 -39 -114.5 -65.5t-95.5 -44t-85 -25.5t-84 -8q-135 0 -200.5 71.5t-65.5 222.5zM225 1397q0 92 97 92q94 0 94 -92q0 -94 -94 -94q-96 0 -97 94z M639 1397q0 92 96 92q94 0 94 -92q0 -94 -94 -94q-96 0 -96 94z" />
<glyph unicode="&#xfd;" horiz-adv-x="1017" d="M27 1092v14h166l276 -793l35 -135h10l37 135l278 793h166v-14l-561 -1543l-155 31l-3 14l150 410zM463 1264l145 376h168l-198 -391z" />
<glyph unicode="&#xfe;" d="M137 -451v2106h160v-662q55 63 133 97t174 34q385 0 385 -551q0 -293 -129 -443t-373 -150q-45 0 -94 5t-96 13v-449h-160zM297 127q51 -12 100 -18.5t92 -6.5q168 0 251 107.5t83 349.5q0 233 -64.5 335.5t-199.5 102.5q-53 0 -101 -17t-84 -50t-56.5 -82t-20.5 -111 v-610z" />
<glyph unicode="&#xff;" horiz-adv-x="1017" d="M27 1092v14h166l276 -793l35 -135h10l37 135l278 793h166v-14l-561 -1543l-155 31l-3 14l150 410zM215 1397q0 92 96 92q94 0 95 -92q-1 -94 -95 -94q-96 0 -96 94zM629 1397q0 92 96 92q94 0 94 -92q0 -94 -94 -94q-96 0 -96 94z" />
<glyph unicode="&#x152;" horiz-adv-x="1759" d="M94 756q0 387 150.5 578.5t437.5 191.5q49 0 100.5 -3t91.5 -7h779v-142h-619v-534h565v-138h-565v-561h637v-141h-797q-39 -6 -92 -8t-100 -2q-289 0 -438.5 191.5t-149.5 574.5zM260 756q0 -326 102.5 -475.5t331.5 -149.5q41 0 89 3t87 9v1227q-41 8 -88 11t-90 3 q-225 0 -328.5 -151.5t-103.5 -476.5z" />
<glyph unicode="&#x153;" horiz-adv-x="1722" d="M84 553q0 281 115.5 427t337.5 146q137 0 229 -67.5t135 -196.5h12q45 129 136.5 195.5t226.5 66.5q180 0 273 -121.5t93 -359.5q0 -51 -2 -83t-8 -64h-643q8 -381 303 -381q135 0 299 61l11 -131q-68 -29 -153 -46t-165 -17q-141 0 -234.5 66.5t-140.5 189.5h-8 q-96 -256 -364 -256q-223 0 -338 145t-115 426zM250 553q0 -229 68.5 -333.5t218.5 -104.5t218 104.5t68 333.5t-69.5 333.5t-216.5 104.5q-150 0 -218.5 -104.5t-68.5 -333.5zM989 608h504q-6 207 -58.5 297t-162.5 90q-131 0 -202 -97t-81 -290z" />
<glyph unicode="&#x178;" horiz-adv-x="1171" d="M2 1516h180l346 -721l50 -121h16l49 121l348 721h178l-499 -1002v-514h-164v508zM264 1769q0 102 105 103q106 0 106 -103q0 -55 -27.5 -79.5t-78.5 -24.5q-104 0 -105 104zM705 1769q0 102 104 103q49 0 77.5 -24.5t28.5 -78.5q0 -55 -28.5 -79.5t-77.5 -24.5 q-104 0 -104 104z" />
<glyph unicode="&#x2c6;" horiz-adv-x="780" d="M84 1294v131l295 150l297 -150v-131l-295 148z" />
<glyph unicode="&#x2dc;" horiz-adv-x="888" d="M72 1362q45 66 104.5 103.5t118.5 37.5q43 0 79 -14t70.5 -31.5t68.5 -32t73 -14.5q74 0 135 80l59 -51q-39 -72 -100.5 -111t-122.5 -39q-41 0 -77 14.5t-70.5 33t-69.5 32.5t-72 14t-73.5 -21.5t-69.5 -57.5z" />
<glyph unicode="&#x2000;" horiz-adv-x="976" />
<glyph unicode="&#x2001;" horiz-adv-x="1952" />
<glyph unicode="&#x2002;" horiz-adv-x="976" />
<glyph unicode="&#x2003;" horiz-adv-x="1952" />
<glyph unicode="&#x2004;" horiz-adv-x="650" />
<glyph unicode="&#x2005;" horiz-adv-x="488" />
<glyph unicode="&#x2006;" horiz-adv-x="325" />
<glyph unicode="&#x2007;" horiz-adv-x="325" />
<glyph unicode="&#x2008;" horiz-adv-x="244" />
<glyph unicode="&#x2009;" horiz-adv-x="390" />
<glyph unicode="&#x200a;" horiz-adv-x="108" />
<glyph unicode="&#x2010;" horiz-adv-x="768" d="M121 506v135h526v-135h-526z" />
<glyph unicode="&#x2011;" horiz-adv-x="768" d="M121 506v135h526v-135h-526z" />
<glyph unicode="&#x2012;" horiz-adv-x="768" d="M121 506v135h526v-135h-526z" />
<glyph unicode="&#x2013;" horiz-adv-x="1093" d="M131 506v135h832v-135h-832z" />
<glyph unicode="&#x2014;" horiz-adv-x="1443" d="M131 506v135h1182v-135h-1182z" />
<glyph unicode="&#x2018;" horiz-adv-x="378" d="M100 1272q0 100 30 205.5t81 183.5l82 -16q-31 -76 -48.5 -165t-17.5 -171q0 -109 39 -224l-135 -18q-16 43 -23.5 93t-7.5 112z" />
<glyph unicode="&#x2019;" horiz-adv-x="376" d="M92 1081q31 78 48.5 167t17.5 169q0 53 -10.5 108.5t-32.5 114.5l139 21q31 -90 31 -205q0 -100 -31 -205.5t-82 -183.5z" />
<glyph unicode="&#x201a;" horiz-adv-x="391" d="M74 -266q31 78 48 167t17 169q0 53 -10 108t-33 115l140 20q31 -90 30 -204q0 -100 -30.5 -206t-81.5 -184z" />
<glyph unicode="&#x201c;" horiz-adv-x="792" d="M100 1272q0 100 30 205.5t81 183.5l82 -16q-31 -76 -48.5 -165t-17.5 -171q0 -109 39 -224l-135 -18q-16 43 -23.5 93t-7.5 112zM512 1272q0 100 29.5 205.5t81.5 183.5l82 -16q-31 -76 -48.5 -165t-17.5 -171q0 -109 39 -224l-135 -18q-16 43 -23.5 93t-7.5 112z" />
<glyph unicode="&#x201d;" horiz-adv-x="788" d="M92 1081q31 78 48.5 167t17.5 169q0 53 -10.5 108.5t-32.5 114.5l139 21q31 -90 31 -205q0 -100 -31 -205.5t-82 -183.5zM504 1081q31 78 48 167t17 169q0 53 -10 108.5t-33 114.5l140 21q31 -90 30 -205q0 -100 -30.5 -205.5t-81.5 -183.5z" />
<glyph unicode="&#x201e;" horiz-adv-x="800" d="M74 -266q31 78 48 167t17 169q0 53 -10 108t-33 115l140 20q31 -90 30 -204q0 -100 -30.5 -206t-81.5 -184zM485 -266q31 78 48.5 167t17.5 169q0 53 -10.5 108t-32.5 115l139 20q31 -90 31 -204q0 -100 -31 -206t-82 -184z" />
<glyph unicode="&#x2022;" horiz-adv-x="618" d="M150 758q0 88 47 122.5t112 34.5q66 0 112 -34.5t46 -122.5t-46 -123t-112 -35t-112.5 35t-46.5 123z" />
<glyph unicode="&#x2026;" horiz-adv-x="1294" d="M111 96q0 104 106 105q51 0 80 -25.5t29 -79.5q0 -102 -109 -102q-106 0 -106 102zM549 96q0 104 106 105q51 0 80 -25.5t29 -79.5q0 -102 -109 -102q-106 0 -106 102zM971 96q0 104 106 105q51 0 80 -25.5t29 -79.5q0 -102 -109 -102q-106 0 -106 102z" />
<glyph unicode="&#x202f;" horiz-adv-x="390" />
<glyph unicode="&#x2039;" horiz-adv-x="571" d="M72 549v8l250 487h167l-249 -487v-8l249 -488h-167z" />
<glyph unicode="&#x203a;" horiz-adv-x="571" d="M82 61l252 488v8l-252 487h168l250 -487v-8l-250 -488h-168z" />
<glyph unicode="&#x205f;" horiz-adv-x="488" />
<glyph unicode="&#x20ac;" horiz-adv-x="1130" d="M80 530v111h156q-2 29 -2.5 56.5t-0.5 58.5v60.5t3 57.5h-156v111h168q39 287 192.5 418t444.5 131q55 0 94 -4t76 -10l-45 -140q-23 4 -47.5 6.5t-57.5 2.5q-115 0 -199.5 -21.5t-143 -70t-94.5 -125t-52 -187.5h485l-39 -111h-459q-2 -29 -2 -58.5v-59.5v-59.5t2 -55.5 h431l-41 -111h-377q33 -215 146.5 -311t336.5 -96q29 0 62.5 4t70.5 10v-145q-55 -12 -145 -12q-287 4 -442.5 136t-196.5 414h-168z" />
<glyph unicode="&#x2122;" horiz-adv-x="1695" d="M59 1409v107h600v-107h-239v-754h-121v754h-240zM764 655v861h147l250 -656l250 656h148v-861h-113v645l-232 -608h-106l-231 606v-643h-113z" />
<glyph unicode="&#x25fc;" horiz-adv-x="1105" d="M0 0v1106h1106v-1106h-1106z" />
</font>
</defs>
</svg>
