<?xml version="1.0" standalone="no"?>
<!DOCTYPE svg PUBLIC "-//W3C//DTD SVG 1.1//EN" "http://www.w3.org/Graphics/SVG/1.1/DTD/svg11.dtd" >
<svg xmlns="http://www.w3.org/2000/svg">
<metadata></metadata>
<defs>
<font id="encode_sans_condensedmedium" horiz-adv-x="1097" >
<font-face units-per-em="2048" ascent="1638" descent="-410" />
<missing-glyph horiz-adv-x="413" />
<glyph unicode="&#xfb01;" horiz-adv-x="1165" d="M31 930v176h182v68q0 135 23.5 226t79 147.5t147.5 83t231 32.5l8 -158q-86 -6 -140 -23.5t-87 -52t-45 -91t-12 -144.5v-88h237v-176h-237v-930h-207v930h-180zM807 1448q0 121 125 121t125 -121q0 -123 -125 -123t-125 123zM829 0v1106h205v-1106h-205z" />
<glyph unicode="&#xfb02;" horiz-adv-x="1167" d="M31 930v176h182v68q0 135 23.5 226t79 147.5t147.5 83t231 32.5l8 -158q-86 -6 -140 -23.5t-87 -52t-45 -91t-12 -144.5v-88h237v-176h-237v-930h-207v930h-180zM827 0v1655h207v-1655h-207z" />
<glyph unicode="&#xfb03;" horiz-adv-x="1824" d="M31 930v176h182v68q0 135 23.5 226t79 147.5t147.5 83t231 32.5l8 -158q-86 -6 -140 -23.5t-87 -52t-45 -91t-12 -144.5v-88h237v-176h-237v-930h-207v930h-180zM690 930v176h182v68q0 135 24 226t79 147.5t147 83t232 32.5l8 -158q-86 -6 -140.5 -23.5t-87 -52t-45 -91 t-12.5 -144.5v-88h238v-176h-238v-930h-207v930h-180zM1466 1448q0 121 125 121t125 -121q0 -123 -125 -123t-125 123zM1489 0v1106h205v-1106h-205z" />
<glyph unicode="&#xfb04;" horiz-adv-x="1826" d="M31 930v176h182v68q0 135 23.5 226t79 147.5t147.5 83t231 32.5l8 -158q-86 -6 -140 -23.5t-87 -52t-45 -91t-12 -144.5v-88h237v-176h-237v-930h-207v930h-180zM690 930v176h182v68q0 135 24 226t79 147.5t147 83t232 32.5l8 -158q-86 -6 -140.5 -23.5t-87 -52t-45 -91 t-12.5 -144.5v-88h238v-176h-238v-930h-207v930h-180zM1487 0v1655h207v-1655h-207z" />
<glyph horiz-adv-x="0" />
<glyph unicode="&#xd;" horiz-adv-x="575" />
<glyph horiz-adv-x="0" />
<glyph horiz-adv-x="0" />
<glyph unicode=" "  horiz-adv-x="413" />
<glyph unicode="&#x09;" horiz-adv-x="413" />
<glyph unicode="&#xa0;" horiz-adv-x="413" />
<glyph unicode="!" horiz-adv-x="495" d="M129 119q0 55 32 87t91 32t91 -33t32 -86q0 -57 -32 -89t-91 -32t-91 31.5t-32 89.5zM139 1495v21h215v-21l-41 -1061v-26h-131v26z" />
<glyph unicode="&#x22;" horiz-adv-x="727" d="M117 983v672h172v-8l-64 -664h-108zM467 983v672h172v-8l-64 -664h-108z" />
<glyph unicode="#" horiz-adv-x="1071" d="M88 455v141h166l27 324h-193v141h205l37 455h151l-37 -455h218l38 455h152l-37 -455h168v-141h-180l-27 -324h207v-141h-217l-37 -455h-154l37 455h-217l-37 -455h-151l37 455h-156zM406 596h219l26 324h-219z" />
<glyph unicode="$" horiz-adv-x="1069" d="M74 45l8 178q43 -14 94 -27.5t105.5 -22.5t107.5 -14t98 -5q147 0 225.5 62.5t78.5 178.5q0 57 -20.5 99.5t-60.5 74t-97.5 58t-131.5 51.5q-96 31 -167.5 67.5t-121 87t-74 120t-24.5 165.5q0 166 97.5 274.5t271.5 137.5v280h182v-272q66 -4 138.5 -15.5t156.5 -31.5 l-6 -174q-92 23 -181 36t-155 13q-135 0 -212 -66.5t-77 -179.5q0 -53 18.5 -92t56.5 -70.5t95.5 -58.5t136.5 -55q92 -31 164 -69t122 -89t76 -119.5t26 -163.5q0 -170 -90.5 -276.5t-256.5 -136.5v-285h-180v270q-96 4 -203.5 22.5t-199.5 47.5z" />
<glyph unicode="%" horiz-adv-x="1830" d="M70 1055q0 238 88 359.5t260 121.5t260 -122t88 -359q0 -238 -88 -360t-260 -122t-260 122t-88 360zM229 1055q0 -174 45.5 -255t143.5 -81q96 0 141 81t45 255t-46 256t-140 82q-96 0 -142.5 -82t-46.5 -256zM528 0l590 1516h178l-589 -1516h-179zM1067 457 q0 238 89 359.5t261 121.5t260 -122t88 -359q0 -240 -88 -361t-260 -121t-261 121t-89 361zM1227 457q0 -174 46 -256t144 -82q96 0 141.5 82t45.5 256t-46.5 255t-140.5 81q-190 0 -190 -336z" />
<glyph unicode="&#x26;" horiz-adv-x="1345" d="M86 422q0 141 65.5 241.5t188.5 151.5q-61 78 -88 158t-27 174q0 193 114 293t329 100q156 0 344 -72l2 -10l-31 -149h-12q-160 66 -287 65q-254 0 -254 -250q0 -66 21.5 -124t67.5 -115.5t118 -114.5t174 -121l186 -117q6 39 8.5 80t2.5 88v146l186 8v-154 q0 -78 -7 -145.5t-22 -126.5l160 -100v-15l-78 -157h-14l-135 90q-148 -269 -498 -269q-119 0 -214 31t-161.5 88.5t-102.5 140t-36 185.5zM295 432q0 -135 85 -213t230 -78q244 0 338 203l-221 148q-170 113 -276 206q-156 -80 -156 -266z" />
<glyph unicode="'" horiz-adv-x="376" d="M117 983v672h172v-8l-64 -664h-108z" />
<glyph unicode="(" horiz-adv-x="598" d="M76 725q0 287 80 556t235 497h182v-9q-154 -225 -239.5 -491t-85.5 -553t86 -553t239 -491v-9h-182q-156 227 -235.5 496.5t-79.5 556.5z" />
<glyph unicode=")" horiz-adv-x="598" d="M27 -319q154 225 237.5 491t83.5 553t-84 553t-237 491v9h182q154 -227 233.5 -496.5t79.5 -556.5t-80 -556t-233 -497h-182v9z" />
<glyph unicode="*" horiz-adv-x="993" d="M76 1354l41 131l155 -49l193 -103l-39 217v162h141v-162l-41 -217l193 103l155 49l44 -131l-156 -49l-217 -29l160 -152l96 -133l-113 -82l-96 131l-96 205l-97 -205l-96 -131l-110 82l94 133l159 152l-217 29z" />
<glyph unicode="+" horiz-adv-x="999" d="M82 682v152h342v342h151v-342h345v-152h-345v-342h-151v342h-342z" />
<glyph unicode="," horiz-adv-x="454" d="M45 -297l90 530h213l-147 -550z" />
<glyph unicode="-" horiz-adv-x="800" d="M115 492v163h571v-163h-571z" />
<glyph unicode="." horiz-adv-x="456" d="M100 115q0 123 127 123q129 0 129 -123t-129 -123q-127 0 -127 123z" />
<glyph unicode="/" horiz-adv-x="684" d="M57 -248l387 1764h183l-385 -1764h-185z" />
<glyph unicode="0" horiz-adv-x="1222" d="M92 756q0 387 132 583.5t388 196.5t387 -196.5t131 -583.5q0 -385 -131 -580.5t-387 -195.5t-388 195.5t-132 580.5zM303 756q0 -309 75.5 -453.5t233.5 -144.5q156 0 232 144t76 454q0 311 -76 457.5t-232 146.5q-158 0 -233.5 -146.5t-75.5 -457.5z" />
<glyph unicode="1" horiz-adv-x="763" d="M31 1225l4 22l407 269h154v-1516h-211v1274h-8l-283 -158h-22z" />
<glyph unicode="2" horiz-adv-x="1005" d="M80 0v215q0 94 21.5 172t66.5 145.5t113.5 127t164.5 120.5q70 45 119 86t80 82t44 84t13 92q0 231 -268 232q-63 0 -138 -12.5t-157 -36.5l-22 174q106 29 197.5 41t170.5 12q428 0 428 -389q0 -76 -18 -140.5t-57 -122t-100.5 -111.5t-145.5 -112q-84 -59 -140.5 -107 t-91 -94t-50 -93.5t-15.5 -104.5v-82h616v-178h-831z" />
<glyph unicode="3" horiz-adv-x="958" d="M90 1503q66 16 138.5 24.5t140.5 8.5q227 0 343.5 -97.5t116.5 -289.5q0 -141 -63.5 -234.5t-183.5 -126.5v-8q141 -31 214.5 -129t73.5 -252q0 -199 -130.5 -307t-374.5 -110q-66 0 -136.5 7t-132.5 21v162h13q43 -12 105 -19.5t122 -7.5q322 0 321 269 q0 145 -81.5 214.5t-268.5 69.5h-76v158h76q160 0 234.5 63.5t74.5 196.5q0 129 -65.5 190.5t-204.5 61.5q-45 0 -104.5 -6t-128.5 -21h-15z" />
<glyph unicode="4" horiz-adv-x="1118" d="M35 471v10l500 1055h10l194 -23l9 -14l-492 -979v-8h430l55 502h152v-502h176v-164h-176v-348h-209v348h-612z" />
<glyph unicode="5" horiz-adv-x="956" d="M92 6v170h47q117 -25 209 -24q319 0 320 297q0 78 -22.5 132t-72 87.5t-127 49t-190.5 15.5h-131l-12 12l55 771h645v-179h-481l-31 -444q154 -2 263.5 -27.5t180 -79t104.5 -137.5t34 -203q0 -117 -36 -205.5t-103.5 -147t-162.5 -88.5t-214 -30q-61 0 -129 8.5 t-146 22.5z" />
<glyph unicode="6" horiz-adv-x="1140" d="M92 674q0 418 164 641t479 223q59 0 121 -8t131 -29l-18 -168q-68 18 -122 26.5t-108 8.5q-201 0 -309 -141.5t-129 -421.5q68 63 155 98t179 35q205 0 321.5 -119t116.5 -327q0 -117 -33.5 -212.5t-96 -163t-150.5 -103.5t-199 -36q-248 0 -375 176.5t-127 520.5z M297 649q4 -258 75.5 -378.5t221.5 -120.5q127 0 198.5 89t71.5 248q0 145 -69.5 221t-200.5 76q-78 0 -159 -37.5t-138 -97.5z" />
<glyph unicode="7" horiz-adv-x="880" d="M43 1493l23 23h749l33 -117v-53l-465 -1348l-43 -29l-172 31v31l467 1302h-584z" />
<glyph unicode="8" horiz-adv-x="1128" d="M90 379q0 154 66.5 249t177.5 152q-92 53 -147.5 137t-55.5 228q0 184 119 286.5t317 102.5q201 0 315.5 -102.5t114.5 -288.5q0 -139 -53 -223t-149 -140q111 -53 177 -139t66 -240q0 -193 -124 -301t-349 -108q-227 0 -351 101.5t-124 285.5zM287 399 q0 -123 74.5 -191.5t203.5 -68.5q127 0 202 65.5t75 182.5q0 70 -21.5 119t-61.5 85t-97.5 61.5t-131.5 47.5l-41 13q-88 -47 -145 -119t-57 -195zM319 1133q0 -63 21.5 -109.5t62.5 -80.5t98.5 -58.5t129.5 -44.5q80 43 129 112.5t49 186.5q0 119 -64.5 181t-179.5 62 t-180.5 -63t-65.5 -186z" />
<glyph unicode="9" horiz-adv-x="1140" d="M68 1024q0 117 33.5 212t96 162.5t150.5 103.5t199 36q248 0 375 -176t127 -520q0 -418 -164 -641.5t-479 -223.5q-59 0 -121 8.5t-131 28.5l18 168q68 -18 122 -26.5t107 -8.5q201 0 309.5 141.5t129.5 422.5q-68 -63 -155 -98t-179 -35q-205 0 -321.5 118.5 t-116.5 327.5zM276 1028q0 -145 70 -221t201 -76q78 0 158.5 38t138.5 97q-4 258 -76 379t-221 121q-127 0 -199 -89t-72 -249z" />
<glyph unicode=":" horiz-adv-x="475" d="M111 115q0 123 127 123q129 0 129 -123t-129 -123q-127 0 -127 123zM111 993q0 123 127 123q129 0 129 -123t-129 -123q-127 0 -127 123z" />
<glyph unicode=";" horiz-adv-x="516" d="M78 -297l90 530h213l-148 -550zM141 993q0 123 127 123q129 0 129 -123t-129 -123q-127 0 -127 123z" />
<glyph unicode="&#x3c;" horiz-adv-x="1046" d="M78 676v145l846 371v-168l-633 -276l629 -277v-166z" />
<glyph unicode="=" horiz-adv-x="1052" d="M121 426v158h811v-158h-811zM121 868v156h811v-156h-811z" />
<glyph unicode="&#x3e;" horiz-adv-x="1046" d="M123 1024v168l846 -371v-145l-842 -371v166l629 277z" />
<glyph unicode="?" horiz-adv-x="864" d="M59 1483q72 23 150 37t162 14q88 0 166.5 -21.5t137 -69.5t93.5 -125t35 -185q0 -100 -34 -173t-89 -124.5t-125 -82t-143 -46.5l-6 -281v-35h-144v35l-16 383q66 14 129 36.5t114.5 57.5t82 86t30.5 127q0 70 -22.5 118t-59.5 77.5t-85 42t-99 12.5q-66 0 -133.5 -12.5 t-124.5 -30.5zM215 113q0 57 32 87.5t91 30.5t92 -30.5t33 -87.5t-33 -88t-92 -31t-91 30.5t-32 88.5z" />
<glyph unicode="@" horiz-adv-x="1681" d="M84 535q0 207 57.5 365.5t159.5 266t246.5 162.5t320.5 55q186 0 321.5 -53t222.5 -151.5t128 -238.5t41 -314q0 -240 -88 -381.5t-262 -141.5q-86 0 -142.5 40t-68.5 143h-10q-57 -90 -143.5 -130t-161.5 -40q-72 0 -123.5 28.5t-85 77.5t-49 113.5t-15.5 136.5 q0 117 34 215t96.5 170t150.5 112t198 40q125 0 299 -72l-73 -428q-6 -37 -12.5 -76t-6.5 -74q0 -59 24.5 -96t94.5 -37q100 0 151.5 106.5t51.5 293.5q0 143 -33 258.5t-101.5 197.5t-177 125t-260.5 43q-143 0 -262 -47t-203 -137t-131 -224t-47 -308q0 -186 48.5 -316.5 t130 -212.5t189 -119t224.5 -37q88 0 186.5 19.5t198.5 52.5l45 -121q-111 -35 -219.5 -57.5t-210.5 -22.5q-145 0 -277 44.5t-233.5 141.5t-162 251.5t-60.5 376.5zM571 473q0 -47 8.5 -89t27 -73.5t48 -51t72.5 -19.5q37 0 80 15t83 50t70.5 91.5t45.5 138.5l55 325 q-80 27 -150 27q-78 0 -140 -32t-107.5 -87t-69 -131t-23.5 -164z" />
<glyph unicode="A" horiz-adv-x="1253" d="M10 0v14l461 1502h311l461 -1502v-14h-201l-137 434h-559l-135 -434h-201zM393 608h467l-155 498l-70 242h-19l-69 -242z" />
<glyph unicode="B" horiz-adv-x="1234" d="M152 10v1497q70 6 126 12.5t106 9.5t94 5t89 2q283 0 413 -100.5t130 -315.5q0 -139 -61.5 -226t-176.5 -114v-8q135 -25 210 -121t75 -250q0 -421 -571 -421q-104 0 -221 8t-213 22zM350 158q31 -6 102.5 -11.5t149.5 -5.5q340 2 340 275q0 143 -82 206.5t-272 63.5 h-238v-528zM350 844h232q86 0 146 14t97 46t53.5 82t16.5 124q0 135 -73.5 197.5t-237.5 62.5q-66 0 -121 -3t-113 -11v-512z" />
<glyph unicode="C" horiz-adv-x="1077" d="M86 756q0 406 158.5 592t488.5 186q59 0 130 -6t149 -21v-176q-66 12 -130.5 18.5t-119.5 6.5q-123 0 -210 -31t-142.5 -101.5t-81 -185t-25.5 -282.5q0 -164 25.5 -276.5t81 -184.5t140.5 -103.5t204 -31.5q25 0 57.5 2t67 5t69.5 7t64 10v-170q-55 -16 -126 -25 t-149 -9q-334 2 -492.5 189t-158.5 587z" />
<glyph unicode="D" horiz-adv-x="1323" d="M152 -8v1515q115 14 208 21.5t166 7.5q186 0 320.5 -46t221.5 -141.5t128 -243t41 -349.5q0 -207 -43 -355.5t-136 -244t-237.5 -140.5t-347.5 -45q-82 0 -163 5.5t-158 15.5zM360 160q53 -6 95.5 -9.5t85.5 -3.5q125 0 216 34t149.5 107.5t86 189.5t27.5 278 q0 164 -25.5 278.5t-82 187t-145.5 105.5t-214 33q-47 0 -96 -4t-97 -10v-1186z" />
<glyph unicode="E" horiz-adv-x="1130" d="M152 0v1516h884v-179h-674v-483h609v-178h-609v-498h693v-178h-903z" />
<glyph unicode="F" horiz-adv-x="1071" d="M152 0v1516h860v-179h-650v-501h594v-179h-594v-657h-210z" />
<glyph unicode="G" horiz-adv-x="1228" d="M86 756q0 401 168 589.5t522 188.5q70 0 159 -10.5t173 -28.5v-176q-98 20 -173 28.5t-140 8.5q-133 0 -227.5 -33t-153 -104.5t-85 -185t-26.5 -277.5q0 -160 25.5 -273.5t81 -185.5t141.5 -104.5t207 -32.5q33 0 76 3t90 9v598h194v-747q-111 -23 -203 -33t-174 -10 q-336 2 -495.5 191t-159.5 585z" />
<glyph unicode="H" horiz-adv-x="1402" d="M152 0v1516h210v-652h678v652h211v-1516h-211v686h-678v-686h-210z" />
<glyph unicode="I" horiz-adv-x="514" d="M152 0v1516h210v-1516h-210z" />
<glyph unicode="J" horiz-adv-x="512" d="M-8 -326q49 104 80.5 189.5t50 166.5t26 165t7.5 188v1133h211v-1147q0 -100 -13.5 -192.5t-41 -182.5t-73.5 -185.5t-110 -201.5z" />
<glyph unicode="K" horiz-adv-x="1255" d="M152 0v1516h210v-656h201l414 656h240l-437 -680l-75 -54v-12l79 -51l471 -719h-237l-449 682h-207v-682h-210z" />
<glyph unicode="L" horiz-adv-x="948" d="M152 0v1516h210v-1338h560v-178h-770z" />
<glyph unicode="M" horiz-adv-x="1761" d="M152 0v1516h290l353 -945l77 -254h15l78 254l352 945h293v-1516h-199v1227h-10l-101 -291l-327 -868h-189l-327 868l-101 291h-10v-1227h-194z" />
<glyph unicode="N" horiz-adv-x="1439" d="M152 0v1516h184l651 -994l96 -170h15v1164h190v-1516h-184l-649 989l-99 176l-16 -2v-1163h-188z" />
<glyph unicode="O" horiz-adv-x="1374" d="M86 756q0 780 600 780q299 0 450.5 -193.5t151.5 -586.5q0 -389 -151.5 -582.5t-450.5 -193.5q-600 0 -600 776zM301 756q0 -158 22.5 -271.5t69.5 -186.5t120 -106.5t173 -33.5t174 33.5t121 106.5t69.5 186.5t22.5 271.5q0 317 -92 459.5t-295 142.5 q-201 0 -293 -142.5t-92 -459.5z" />
<glyph unicode="P" horiz-adv-x="1191" d="M152 0v1505q182 33 356 33q328 0 477.5 -127t149.5 -401t-150.5 -400.5t-476.5 -126.5h-73t-73 4v-487h-210zM362 670q35 -4 84.5 -8.5t92.5 -4.5q205 0 293 82t88 271q0 186 -87.5 269t-287.5 83q-43 0 -92.5 -4t-90.5 -10v-678z" />
<glyph unicode="Q" horiz-adv-x="1368" d="M82 756q0 391 150.5 585.5t449.5 194.5q602 0 602 -780q0 -340 -134 -521.5t-396 -201.5v-17q63 -18 123.5 -31.5t125 -23.5t134 -18.5t153.5 -14.5l-84 -174q-313 61 -528 137t-347 189t-190.5 275.5t-58.5 400.5zM295 756q0 -317 92 -458.5t295 -141.5q201 0 295 142 t94 458q0 317 -92 461.5t-297 144.5q-203 0 -295 -143.5t-92 -462.5z" />
<glyph unicode="R" horiz-adv-x="1222" d="M152 0v1505q90 16 179 24.5t177 8.5q328 0 477.5 -120t149.5 -380q0 -346 -285 -448l321 -590h-227l-282 551q-66 -6 -142 -6q-31 0 -77 2t-81 6v-553h-210zM362 729q37 -6 84.5 -10t92.5 -4q205 0 293 74.5t88 248.5t-87.5 249t-287.5 75q-37 0 -86 -4t-97 -10v-619z " />
<glyph unicode="S" horiz-adv-x="1062" d="M72 45l8 178q43 -14 94 -27.5t105.5 -22.5t107.5 -14t98 -5q147 0 225 62.5t78 178.5q0 57 -20 99.5t-60 74t-97.5 58t-131.5 51.5q-96 31 -167.5 67.5t-121 87t-74 120t-24.5 165.5t34 174t97.5 133.5t153.5 85t203 29.5q82 0 168 -11t190 -38l-6 -174q-92 23 -181 36 t-155 13q-135 0 -212 -66.5t-77 -179.5q0 -53 18.5 -92t56.5 -70.5t95.5 -58.5t136.5 -55q92 -31 164 -69t122 -89t75.5 -119.5t25.5 -163.5q0 -205 -129 -316.5t-360 -111.5q-98 0 -218 18.5t-222 51.5z" />
<glyph unicode="T" horiz-adv-x="1087" d="M31 1335v181h1026v-181h-408v-1335h-213v1335h-405z" />
<glyph unicode="U" horiz-adv-x="1398" d="M139 598v918h209v-912q0 -236 84 -340t266 -104q184 0 267.5 103.5t83.5 340.5v912h211v-918q0 -160 -31 -276.5t-98.5 -192.5t-174 -112.5t-258.5 -36.5t-258 36.5t-172.5 112.5t-97.5 192.5t-31 276.5z" />
<glyph unicode="V" horiz-adv-x="1261" d="M8 1516h213l326 -1029l76 -286h18l76 286l327 1029h209l-479 -1516h-285z" />
<glyph unicode="W" horiz-adv-x="1916" d="M27 1516h227l223 -1012l49 -252h17l57 252l254 1012h219l244 -1012l53 -252h16l54 252l233 1012h225l-385 -1516h-262l-239 967l-43 256h-15l-45 -256l-250 -967h-264z" />
<glyph unicode="X" horiz-adv-x="1255" d="M2 0l490 774l-463 742h237l342 -558l21 -43h8l22 43l338 558h232l-469 -740l495 -776h-237l-371 594l-20 39h-9l-20 -39l-362 -594h-234z" />
<glyph unicode="Y" horiz-adv-x="1222" d="M-4 1516h233l326 -682l47 -121h19l47 121l327 682h230l-508 -1004v-512h-209v506z" />
<glyph unicode="Z" horiz-adv-x="1083" d="M59 0v172l697 1149v14h-674v181h922v-173l-699 -1150v-13h719v-180h-965z" />
<glyph unicode="[" horiz-adv-x="643" d="M152 -328v2106h436v-146h-266v-1814h266v-146h-436z" />
<glyph unicode="\" horiz-adv-x="675" d="M57 1516h176l385 -1762h-174z" />
<glyph unicode="]" horiz-adv-x="643" d="M53 -182h269v1814h-269v146h436v-2106h-436v146z" />
<glyph unicode="^" horiz-adv-x="847" d="M76 985l262 631h172l260 -631h-149l-193 485h-8l-193 -485h-151z" />
<glyph unicode="_" d="M88 -123h924v-160h-924v160z" />
<glyph unicode="`" horiz-adv-x="507" d="M53 1647h217l144 -375l-150 -21z" />
<glyph unicode="a" horiz-adv-x="1003" d="M61 289q0 315 398 342l217 14v80q0 68 -11.5 113t-38 72.5t-70.5 40t-110 12.5q-55 0 -138 -9.5t-154 -25.5l-15 157q90 16 177 25.5t165 9.5q207 0 304.5 -85t97.5 -267v-768h-172l-19 135h-14q-72 -61 -157 -103t-177 -42q-133 0 -208 78.5t-75 220.5zM268 307 q0 -160 152 -160q31 0 65.5 10.5t68.5 27t64.5 36t57.5 35.5v258l-166 -14q-131 -10 -186.5 -56.5t-55.5 -136.5z" />
<glyph unicode="b" horiz-adv-x="1101" d="M127 37v1618h207v-664q51 66 128 99.5t173 33.5q387 0 387 -546q0 -131 -29.5 -240t-92 -187.5t-160 -123.5t-234.5 -47q-164 0 -379 57zM334 152q86 -23 178 -23q156 0 228.5 99.5t72.5 330.5q0 219 -57.5 313.5t-182.5 94.5q-98 0 -168.5 -64.5t-70.5 -193.5v-557z" />
<glyph unicode="c" horiz-adv-x="868" d="M80 553q0 573 491 573q102 0 222 -28v-170q-53 12 -103.5 17t-97.5 5q-158 0 -229.5 -94t-71.5 -303t70.5 -304t228.5 -95q49 0 97 5t106 19v-168q-45 -14 -105 -22t-117 -8q-248 0 -369.5 140t-121.5 433z" />
<glyph unicode="d" horiz-adv-x="1103" d="M80 537q0 291 132 439t376 148q45 0 87 -4t95 -10v545h205v-1655h-182l-17 119h-10q-102 -137 -295 -137q-197 0 -294 136t-97 419zM291 555q0 -219 58 -318.5t181 -99.5q98 0 169 65.5t71 196.5v553q-49 10 -94 16.5t-94 6.5q-147 0 -219 -98.5t-72 -321.5z" />
<glyph unicode="e" horiz-adv-x="1007" d="M80 537q0 289 118.5 438t348.5 149q387 0 387 -491q0 -51 -3 -86t-7 -68h-637q10 -178 76.5 -256t205.5 -78q68 0 148 15.5t166 44.5l10 -160q-72 -29 -163 -46t-177 -17q-231 0 -352 141t-121 414zM289 623h456q-4 184 -52 264t-152 80q-231 0 -252 -344z" />
<glyph unicode="f" horiz-adv-x="679" d="M31 930v176h182v68q0 135 23.5 226t79 147.5t147.5 83t231 32.5l8 -158q-86 -6 -140 -23.5t-87 -52t-45 -91t-12 -144.5v-88h237v-176h-237v-930h-207v930h-180z" />
<glyph unicode="g" horiz-adv-x="1103" d="M80 541q0 287 133 435t375 148q92 0 183 -12t206 -45v-938q0 -156 -34 -265.5t-96.5 -179t-154.5 -102.5t-209 -33q-168 0 -321 48l16 161q152 -47 285 -47q156 0 233.5 84t81.5 289v59h-10q-102 -137 -293 -137q-199 0 -297 130t-98 405zM291 559q0 -211 58 -306 t181 -95q98 0 169 64.5t71 187.5v542q-49 10 -94 16.5t-92 6.5q-150 0 -221.5 -97.5t-71.5 -318.5z" />
<glyph unicode="h" horiz-adv-x="1099" d="M129 0v1655h207v-666q123 72 210 104.5t171 32.5q131 0 194.5 -71.5t63.5 -223.5v-831h-205v768q0 96 -32.5 138t-104.5 42q-61 0 -137 -26.5t-160 -75.5v-846h-207z" />
<glyph unicode="i" horiz-adv-x="466" d="M233 1569q125 0 125 -121q0 -123 -125 -123q-124 0 -124 121q0 123 124 123zM131 0v1106h205v-1106h-205z" />
<glyph unicode="j" horiz-adv-x="462" d="M4 -401q66 137 96.5 293.5t30.5 351.5v66.5v154.5v199.5v203t-1 162t-1 76.5h207v-934q-2 -160 -52.5 -323.5t-136.5 -299.5zM106 1448q0 121 125 121t125 -121q0 -123 -125 -123t-125 123z" />
<glyph unicode="k" horiz-adv-x="1024" d="M129 0v1655h207v-1010h137l299 461h227l-352 -518l-37 -17v-6l39 -20l385 -545h-227l-338 494h-133v-494h-207z" />
<glyph unicode="l" horiz-adv-x="471" d="M131 0v1655h207v-1655h-207z" />
<glyph unicode="m" horiz-adv-x="1677" d="M129 0v1106h170l12 -121h8q115 74 200 107.5t167 33.5q178 0 234 -145h10q111 78 196.5 111.5t169.5 33.5q129 0 193.5 -71.5t64.5 -223.5v-831h-202v766q0 96 -35 138t-107 42q-115 0 -266 -98v-848h-205v766q0 96 -33.5 138t-105.5 42q-59 0 -128 -25.5t-140 -72.5 v-848h-203z" />
<glyph unicode="n" horiz-adv-x="1099" d="M129 0v1106h174l14 -121h9q127 76 217 108.5t176 32.5q129 0 192.5 -71.5t63.5 -223.5v-831h-205v768q0 98 -34 139t-103 41q-66 0 -140.5 -27.5t-156.5 -74.5v-846h-207z" />
<glyph unicode="o" d="M78 553q0 281 120.5 427t350.5 146q231 0 351 -146t120 -427t-120 -427t-351 -146q-229 0 -350 146t-121 427zM287 553q0 -219 61.5 -313.5t200.5 -94.5q137 0 199.5 94.5t62.5 313.5t-61.5 313.5t-200.5 94.5t-200.5 -94.5t-61.5 -313.5z" />
<glyph unicode="p" horiz-adv-x="1103" d="M129 -451v1557h184l13 -117h10q53 66 129 100.5t172 34.5q389 0 389 -546q0 -133 -30.5 -243t-94 -188.5t-161 -122.5t-228.5 -44q-43 0 -88 4t-88 12v-447h-207zM336 152q41 -10 88 -15.5t92 -5.5q154 0 226.5 99.5t72.5 328.5q0 219 -57.5 314.5t-182.5 95.5 q-100 0 -169.5 -65.5t-69.5 -196.5v-555z" />
<glyph unicode="q" horiz-adv-x="1101" d="M80 537q0 289 131 438t385 149q98 0 194.5 -11t184.5 -34v-1530h-203v568q-111 -135 -301 -135q-391 0 -391 555zM287 559q0 -223 57 -322.5t186 -99.5q104 0 171 67.5t67 196.5v553q-55 10 -98 15.5t-86 5.5q-156 0 -226.5 -97.5t-70.5 -318.5z" />
<glyph unicode="r" horiz-adv-x="727" d="M129 0v1106h174l14 -145h11q57 43 147 91t178 72h52v-200h-78q-82 -10 -160 -41t-131 -68v-815h-207z" />
<glyph unicode="s" horiz-adv-x="860" d="M80 25v161q78 -23 160 -37t157 -14q96 0 146.5 43t50.5 121q0 76 -44 116t-136 60q-53 10 -111.5 24.5t-105.5 48.5t-78 94t-31 163q0 154 97.5 239.5t271.5 85.5q63 0 128.5 -9t164.5 -29l-2 -162q-94 23 -151.5 31t-109.5 8q-98 0 -151 -42t-53 -116q0 -45 15 -73.5 t41 -47t61.5 -30t78.5 -21.5q66 -14 123 -35.5t99 -58.5t67 -93.5t25 -140.5q0 -156 -102.5 -245t-284.5 -89q-70 0 -148 12.5t-178 35.5z" />
<glyph unicode="t" horiz-adv-x="747" d="M27 928v178h211l28 287l164 24v-311h281v-178h-279v-590q0 -188 162 -188q25 0 56.5 4t60.5 14v-162q-41 -10 -86 -15t-86 -5q-313 0 -314 309v633h-198z" />
<glyph unicode="u" d="M121 274v832h207v-772q0 -98 31.5 -137t109.5 -39q70 0 139.5 27.5t153.5 80.5v840h207v-1106h-174l-15 121h-8q-63 -39 -113.5 -65.5t-93.5 -44t-84 -24.5t-86 -7q-274 0 -274 294z" />
<glyph unicode="v" horiz-adv-x="1044" d="M25 1090v16h215l239 -784l35 -142h18l35 142l242 784h213v-16l-371 -1090h-258z" />
<glyph unicode="w" horiz-adv-x="1492" d="M41 1096v10h197l153 -729l29 -154h16l33 154l178 729h201l178 -729l35 -154h16l31 154l152 729h194v-10l-260 -1096h-233l-183 723l-22 123h-17l-22 -123l-182 -723h-232z" />
<glyph unicode="x" horiz-adv-x="1040" d="M18 0v20l361 553l-342 519v14h219l215 -346l47 -78h12l43 78l211 346h222v-14l-342 -531l358 -541v-20h-217l-234 379l-47 82h-12l-47 -82l-227 -379h-220z" />
<glyph unicode="y" horiz-adv-x="1054" d="M20 1087v19h213l252 -744l35 -143h12l37 143l254 744h213v-19l-557 -1538l-203 39v15l146 401z" />
<glyph unicode="z" horiz-adv-x="903" d="M63 0v137l510 791v10h-491v168h737v-135l-506 -791v-12h527v-168h-777z" />
<glyph unicode="{" horiz-adv-x="694" d="M47 653v158q76 0 113 53.5t37 155.5v522q0 131 49 183.5t172 52.5q20 0 54 -1t66.5 -3t60.5 -3.5t36 -3.5v-135h-160q-59 0 -82.5 -22.5t-23.5 -77.5v-553q0 -94 -38 -161.5t-104 -86.5q66 -18 104 -84.5t38 -159.5v-557q0 -57 23.5 -79.5t82.5 -22.5h160v-135 q-8 -2 -36 -4t-60.5 -3t-65.5 -2t-53 -1q-123 0 -173 52t-50 185v526q0 100 -37 153.5t-113 53.5z" />
<glyph unicode="|" horiz-adv-x="501" d="M152 -451v2106h196v-2106h-196z" />
<glyph unicode="}" horiz-adv-x="694" d="M59 -172h160q59 0 83 22.5t24 79.5v557q0 92 37.5 159t103.5 85q-66 18 -103.5 86t-37.5 162v553q0 55 -23.5 77.5t-83.5 22.5h-160v135q8 2 35 3.5t60.5 3.5t67.5 3t54 1q123 0 172.5 -52.5t49.5 -183.5v-522q0 -102 36.5 -155.5t112.5 -53.5v-158q-76 0 -112.5 -53 t-36.5 -154v-526q0 -133 -49.5 -185t-174.5 -52q-18 0 -52 1t-67.5 2t-60 3t-35.5 4v135z" />
<glyph unicode="~" horiz-adv-x="1173" d="M100 573q51 63 92 106.5t77 69t71 36t74 10.5q55 0 98 -23.5t82 -53.5t77 -53.5t83 -23.5q53 0 104 39t84 104l131 -71q-23 -41 -54.5 -83t-70.5 -76t-84 -55.5t-94 -21.5q-59 0 -104 23.5t-85 53.5t-76 53.5t-75 23.5q-51 0 -99 -34t-108 -112z" />
<glyph unicode="&#xa1;" horiz-adv-x="464" d="M115 987q0 57 32 89t91 32t90.5 -32t31.5 -89q0 -53 -31.5 -86t-90.5 -33t-91 32t-32 87zM125 -389l43 1061v26h131v-26l41 -1061v-21h-215v21z" />
<glyph unicode="&#xa2;" horiz-adv-x="899" d="M80 553q0 514 399 567v234h142v-230q41 -2 84 -9t88 -17v-170q-53 12 -103.5 17t-97.5 5q-158 0 -229.5 -94t-71.5 -303t70.5 -304t228.5 -95q49 0 97 5t106 19v-168q-35 -10 -80 -17t-92 -11v-226h-142v230q-399 45 -399 567z" />
<glyph unicode="&#xa3;" horiz-adv-x="1175" d="M84 0v184h250v490h-250v166h250v239q0 229 99 340t323 111q139 0 342 -57l-19 -170q-78 23 -155.5 35t-137.5 12q-133 0 -187 -62.5t-54 -210.5v-237h373v-166h-373v-492h524v-182h-985z" />
<glyph unicode="&#xa4;" horiz-adv-x="1171" d="M92 360l111 113l102 72q-47 90 -47 213q0 125 49 211l-104 75l-111 111l94 94l113 -108l68 -94q41 41 97 62t124 21q66 0 121 -21.5t96 -61.5l67 94l113 108l92 -94l-108 -111l-107 -75q23 -43 36 -96.5t13 -114.5q0 -125 -49 -213l107 -72l108 -113l-92 -94l-113 109 l-67 94q-86 -86 -219 -86q-135 0 -221 86l-66 -94l-113 -109zM397 758q0 -119 51.5 -182.5t137.5 -63.5t136 62.5t50 183.5t-50 182t-136 61t-137.5 -61t-51.5 -182z" />
<glyph unicode="&#xa5;" horiz-adv-x="1323" d="M49 1516h234l325 -682l47 -121h19l47 121l328 682h229l-436 -863h266v-147h-338v-172h338v-148h-338v-186h-209v186h-358v148h358v172h-358v147h282z" />
<glyph unicode="&#xa6;" horiz-adv-x="489" d="M145 418h197v-869h-197v869zM145 786v869h197v-869h-197z" />
<glyph unicode="&#xa7;" horiz-adv-x="913" d="M102 25v157q78 -23 161 -35t157 -12q96 0 147 43t51 121q0 76 -45 116t-137 60q-53 10 -110.5 24.5t-105.5 48.5t-78.5 94t-30.5 163q0 121 67 205q-29 35 -48 85t-19 128q0 152 98 237.5t272 85.5q63 0 129 -8t162 -29l-2 -159q-92 23 -149.5 29.5t-108.5 6.5 q-98 0 -151.5 -41.5t-53.5 -115.5q0 -45 14.5 -74t41 -47t62.5 -30.5t77 -20.5q66 -16 123 -37t99 -57.5t66.5 -93t24.5 -142.5q0 -127 -67 -209q35 -35 51 -85t16 -122q0 -156 -102.5 -245t-284.5 -89q-68 0 -145.5 12.5t-180.5 35.5zM301 815q0 -47 13.5 -76.5t36 -49 t53 -32t65.5 -22.5q31 -10 61.5 -21.5t57.5 -21.5q16 23 26.5 52.5t10.5 66.5q0 78 -39 119.5t-113 62.5q-29 10 -60.5 18.5t-60.5 20.5q-51 -47 -51 -117z" />
<glyph unicode="&#xa8;" horiz-adv-x="903" d="M109 1403q0 59 27.5 84.5t84.5 25.5q115 0 115 -110q0 -59 -29 -85t-86 -26t-84.5 25.5t-27.5 85.5zM543 1403q0 59 27.5 84.5t86.5 25.5q113 0 113 -110q0 -59 -30 -85t-83 -26q-59 0 -86.5 25.5t-27.5 85.5z" />
<glyph unicode="&#xa9;" horiz-adv-x="1689" d="M84 758q0 174 54.5 318.5t154.5 246.5t240.5 158.5t312.5 56.5t311 -56.5t239.5 -158.5t155 -246.5t54.5 -318.5q0 -176 -54.5 -319.5t-155 -246t-239.5 -159t-311 -56.5t-312.5 56.5t-240.5 159t-154.5 246t-54.5 319.5zM215 758q0 -147 44 -268t126 -207t199 -133.5 t262 -47.5q143 0 260 47.5t200 133.5t127 206.5t44 268.5q0 147 -44 269t-127 208t-200 133t-260 47q-145 0 -262 -47t-199 -133t-126 -208t-44 -269zM496 750q0 213 100 318.5t281 105.5q47 0 92 -5.5t86 -15.5v-127q-43 8 -85 13t-79 5q-246 0 -246 -292 q0 -150 62.5 -219.5t181.5 -69.5q35 0 79 5t91 13v-125q-84 -22 -182 -22q-180 0 -280.5 103.5t-100.5 312.5z" />
<glyph unicode="&#xaa;" horiz-adv-x="827" d="M76 934q0 104 72.5 167.5t213.5 74.5l181 12v49q0 47 -7.5 78t-27 48t-51 24.5t-80.5 7.5q-41 0 -96.5 -4.5t-126.5 -16.5l-13 127q152 27 265 27q164 0 235.5 -60.5t71.5 -193.5v-553h-146l-8 96h-8q-68 -51 -131.5 -77.5t-124.5 -26.5q-98 0 -158.5 60.5t-60.5 160.5z M244 948q-1 -110 110 -110q37 0 81 17t108 52v176l-97 -8q-115 -10 -158.5 -36.5t-43.5 -90.5z" />
<glyph unicode="&#xab;" horiz-adv-x="1093" d="M66 549v8l251 487h211l-249 -487v-8l249 -488h-211zM555 549v8l252 487h211l-250 -487v-8l250 -488h-211z" />
<glyph unicode="&#xac;" horiz-adv-x="1540" d="M104 707v172h1309v-654h-203v482h-1106z" />
<glyph unicode="&#xad;" horiz-adv-x="800" d="M115 492v163h571v-163h-571z" />
<glyph unicode="&#xae;" horiz-adv-x="1433" d="M90 913q0 137 46 253t129 199t198 130t254 47q137 0 252.5 -47t199.5 -130t130.5 -198.5t46.5 -253.5q0 -137 -46.5 -251.5t-130.5 -197.5t-199.5 -129t-252.5 -46q-139 0 -254 46t-198 129t-129 197.5t-46 251.5zM201 913q0 -115 36.5 -211t104.5 -164.5t163 -106.5 t212 -38t212 38t162.5 106.5t105.5 165t38 210.5q0 115 -38 211.5t-105.5 165t-162.5 107.5t-212 39t-212 -39t-163 -107.5t-104.5 -165t-36.5 -211.5zM489 588v676q106 12 195 12q156 0 229.5 -53.5t73.5 -163.5q0 -156 -139 -197l-2 -6l162 -268h-117l-146 243h-147v-243 h-109zM598 926q12 -2 41 -2h49q98 0 143.5 31.5t45.5 101.5q0 66 -42 98.5t-141 32.5q-16 0 -44.5 -1t-51.5 -5v-256z" />
<glyph unicode="&#xaf;" horiz-adv-x="839" d="M106 1313v143h611v-143h-611z" />
<glyph unicode="&#xb0;" horiz-adv-x="851" d="M74 1147q0 84 25.5 154.5t72.5 123t111.5 81t142.5 28.5t142.5 -28.5t110.5 -81t71.5 -123t25.5 -154.5t-25.5 -153.5t-71.5 -122t-110.5 -81t-142.5 -28.5t-142.5 28.5t-111.5 81t-72.5 122t-25.5 153.5zM203 1147q0 -117 57 -188.5t166 -71.5t165 71.5t56 188.5 t-56 189.5t-165 72.5t-166 -72.5t-57 -189.5z" />
<glyph unicode="&#xb1;" horiz-adv-x="1062" d="M121 799v153h334v340h151v-340h336v-153h-336v-334h-151v334h-334zM123 166v151h819v-151h-819z" />
<glyph unicode="&#xb2;" horiz-adv-x="792" d="M68 614v168q0 68 15 124.5t49 106.5t87 97t129 94q104 66 144 118t40 116q0 152 -188 151q-88 0 -229 -37l-21 152q84 23 154.5 33t132.5 10q334 0 334 -293q0 -111 -55.5 -191.5t-178.5 -160.5q-115 -78 -165 -142.5t-50 -140.5v-49h447v-156h-645z" />
<glyph unicode="&#xb3;" horiz-adv-x="749" d="M76 1722q53 12 109.5 19.5t107.5 7.5q178 0 267 -75t89 -220q0 -96 -44 -162.5t-128 -97.5q201 -63 201 -279q0 -150 -100.5 -232.5t-282.5 -82.5q-55 0 -110.5 7t-104.5 18v153h18q35 -8 82 -13t88 -5q117 0 173.5 44t56.5 128q0 94 -59.5 139t-190.5 45h-66v139h66 q111 0 166 44t55 128q0 164 -193 164q-35 0 -78.5 -5t-95.5 -15h-20z" />
<glyph unicode="&#xb4;" horiz-adv-x="491" d="M78 1264l143 378h213l-209 -393z" />
<glyph unicode="&#xb5;" horiz-adv-x="1153" d="M150 -451v1557h204v-772q0 -180 148 -180q66 0 134.5 25.5t154.5 76.5v850h206v-1106h-174l-14 121h-8q-63 -39 -113.5 -65.5t-93.5 -44t-84 -24.5t-86 -7q-39 0 -70 6v-437h-204z" />
<glyph unicode="&#xb6;" d="M68 1034q0 137 29.5 231.5t82.5 152t130 83t171 25.5q45 0 90 -5t95 -16v-1505h-117v545q-16 -2 -35.5 -2h-38.5q-92 0 -168 25.5t-129 83t-81.5 151.5t-28.5 231zM782 0v1505h146v-1505h-146z" />
<glyph unicode="&#xb7;" horiz-adv-x="460" d="M104 758q0 66 31 95.5t94 29.5q125 0 125 -125q0 -66 -32 -94.5t-93 -28.5q-63 0 -94 28.5t-31 94.5z" />
<glyph unicode="&#xb8;" horiz-adv-x="565" d="M57 -291q31 -10 66 -15t63 -5q119 0 119 108q0 100 -102 250h143q59 -86 83 -148.5t24 -125.5q0 -106 -60.5 -165t-173.5 -59q-76 0 -162 23v137z" />
<glyph unicode="&#xb9;" horiz-adv-x="614" d="M31 1509l4 27l311 197h131v-1119h-182v914l-205 -107h-24z" />
<glyph unicode="&#xba;" horiz-adv-x="878" d="M80 1118q0 209 95 310.5t265 101.5t264.5 -101.5t94.5 -310.5t-94.5 -310t-264.5 -101t-265 101t-95 310zM250 1118q0 -82 12 -136t36 -86t59.5 -45t82.5 -13q45 0 81 13t60.5 45t37 86t12.5 136t-12.5 136.5t-37 87t-60.5 46t-81 13.5q-47 0 -82.5 -13.5t-59.5 -46 t-36 -87t-12 -136.5z" />
<glyph unicode="&#xbb;" horiz-adv-x="1093" d="M76 61l252 488v8l-252 487h211l252 -487v-8l-252 -488h-211zM565 61l252 488v8l-252 487h211l252 -487v-8l-252 -488h-211z" />
<glyph unicode="&#xbc;" horiz-adv-x="1869" d="M49 1305l4 26l312 197h131v-1118h-183v913l-204 -106h-25zM477 0l592 1516h176l-590 -1516h-178zM1028 360l365 758l20 10l148 -18l10 -27l-357 -690h299l50 365h120v-365h129v-141h-129v-252h-182v252h-440z" />
<glyph unicode="&#xbd;" horiz-adv-x="1925" d="M49 1305l4 26l312 197h131v-1118h-183v913l-204 -106h-25zM477 0l592 1516h176l-590 -1516h-178zM1186 -2v168q0 66 14 121t48 105t87.5 97.5t130.5 98.5q53 37 89 65.5t57.5 55t30 54.5t8.5 58q0 152 -185 152q-53 0 -116.5 -10.5t-116.5 -26.5l-21 151q172 43 287 43 q334 0 334 -292q0 -53 -12.5 -98.5t-40 -87.5t-71.5 -82t-110 -85q-59 -41 -99 -76.5t-66.5 -68.5t-38 -66.5t-11.5 -70.5v-49h447v-156h-645z" />
<glyph unicode="&#xbe;" horiz-adv-x="1968" d="M98 1518q53 12 109.5 19t107.5 7q178 0 267.5 -74.5t89.5 -220.5q0 -96 -44 -162.5t-128 -97.5q201 -63 200 -278q0 -150 -100.5 -233t-282.5 -83q-55 0 -110 7.5t-105 17.5v153h19q35 -8 82 -13t88 -5q117 0 173 44t56 128q0 94 -59.5 139t-190.5 45h-65v140h65 q111 0 166.5 44t55.5 128q0 164 -193 163q-35 0 -79 -5t-95 -15h-21zM586 0l592 1516h176l-590 -1516h-178zM1130 360l365 758l21 10l147 -18l10 -27l-356 -690h299l49 365h121v-365h129v-141h-129v-252h-182v252h-441z" />
<glyph unicode="&#xbf;" horiz-adv-x="851" d="M55 -20q0 100 34 172.5t89 124t125 82t143 47.5l7 280v35h143v-35l16 -383q-66 -16 -129 -37.5t-114.5 -56.5t-82 -86t-30.5 -127q0 -72 21.5 -119t58.5 -76.5t85 -42t101 -12.5q66 0 133.5 12.5t124.5 30.5l19 -160q-72 -23 -150 -37t-162 -14q-88 0 -166.5 21.5 t-137 69.5t-93.5 125t-35 186zM395 999q0 57 33 88t92 31t91 -30.5t32 -88.5q0 -57 -31.5 -87.5t-91.5 -30.5q-59 0 -92 30.5t-33 87.5z" />
<glyph unicode="&#xc0;" horiz-adv-x="1253" d="M10 0v14l461 1502h311l461 -1502v-14h-201l-137 434h-559l-135 -434h-201zM334 1937h215l147 -290l-155 -27zM393 608h467l-155 498l-70 242h-19l-69 -242z" />
<glyph unicode="&#xc1;" horiz-adv-x="1253" d="M10 0v14l461 1502h311l461 -1502v-14h-201l-137 434h-559l-135 -434h-201zM393 608h467l-155 498l-70 242h-19l-69 -242zM539 1632l147 305h215l-207 -317z" />
<glyph unicode="&#xc2;" horiz-adv-x="1253" d="M10 0v14l461 1502h311l461 -1502v-14h-201l-137 434h-559l-135 -434h-201zM317 1653v157l312 150l311 -150v-157l-311 149zM393 608h467l-155 498l-70 242h-19l-69 -242z" />
<glyph unicode="&#xc3;" horiz-adv-x="1253" d="M10 0v14l461 1502h311l461 -1502v-14h-201l-137 434h-559l-135 -434h-201zM268 1739q49 80 113.5 126t128.5 46q43 0 81 -13.5t74.5 -30t72.5 -29.5t75 -13q78 0 148 82l51 -49q-43 -86 -108.5 -130.5t-131.5 -44.5q-41 0 -79 12.5t-74.5 28t-72.5 28.5t-75 13 q-78 0 -156 -77zM393 608h467l-155 498l-70 242h-19l-69 -242z" />
<glyph unicode="&#xc4;" horiz-adv-x="1253" d="M10 0v14l461 1502h311l461 -1502v-14h-201l-137 434h-559l-135 -434h-201zM270 1784q0 121 125 121t125 -121q0 -66 -32 -95.5t-93 -29.5q-125 0 -125 125zM393 608h467l-155 498l-70 242h-19l-69 -242zM733 1784q0 121 125 121q127 0 127 -121q0 -66 -33 -95.5 t-94 -29.5q-125 0 -125 125z" />
<glyph unicode="&#xc5;" horiz-adv-x="1253" d="M10 0v14l461 1502h311l461 -1502v-14h-201l-137 434h-559l-135 -434h-201zM393 608h467l-155 498l-70 242h-19l-69 -242zM403 1749q0 96 60.5 158.5t163.5 62.5q102 0 163.5 -62.5t61.5 -158.5q0 -92 -61.5 -155.5t-163.5 -63.5t-163 63.5t-61 155.5zM504 1749 q0 -59 30 -92t93 -33q61 0 92 33t31 92t-30 93t-93 34t-93 -34t-30 -93z" />
<glyph unicode="&#xc6;" horiz-adv-x="1679" d="M6 0v14l522 1502h1051v-179h-600l25 -483h528v-178h-518l26 -498h559v-178h-765l-19 430h-448l-150 -430h-211zM430 612h379l-31 738h-92z" />
<glyph unicode="&#xc7;" horiz-adv-x="1077" d="M86 756q0 406 158.5 592t488.5 186q59 0 130 -6t149 -21v-176q-66 12 -130.5 18.5t-119.5 6.5q-123 0 -210 -31t-142.5 -101.5t-81 -185t-25.5 -282.5q0 -164 25.5 -276.5t81 -184.5t140.5 -103.5t204 -31.5q25 0 57.5 2t67 5t69.5 7t64 10v-170q-53 -14 -121 -23 t-141 -11q35 -59 49 -108.5t14 -98.5q0 -106 -60 -165t-173 -59q-76 0 -162 23v137q31 -10 65.5 -15t63.5 -5q119 0 119 108q0 80 -66 193q-262 37 -388 223t-126 543z" />
<glyph unicode="&#xc8;" horiz-adv-x="1130" d="M152 0v1516h884v-179h-674v-483h609v-178h-609v-498h693v-178h-903zM311 1937h215l148 -290l-156 -27z" />
<glyph unicode="&#xc9;" horiz-adv-x="1130" d="M152 0v1516h884v-179h-674v-483h609v-178h-609v-498h693v-178h-903zM506 1632l147 305h215l-206 -317z" />
<glyph unicode="&#xca;" horiz-adv-x="1130" d="M152 0v1516h884v-179h-674v-483h609v-178h-609v-498h693v-178h-903zM289 1653v157l311 150l311 -150v-157l-311 149z" />
<glyph unicode="&#xcb;" horiz-adv-x="1130" d="M152 0v1516h884v-179h-674v-483h609v-178h-609v-498h693v-178h-903zM240 1784q0 121 125 121t124 -121q0 -66 -31.5 -95.5t-92.5 -29.5q-125 0 -125 125zM702 1784q0 121 125 121q127 0 127 -121q0 -66 -33 -95.5t-94 -29.5q-125 0 -125 125z" />
<glyph unicode="&#xcc;" horiz-adv-x="514" d="M-25 1937h215l148 -290l-156 -27zM152 0v1516h210v-1516h-210z" />
<glyph unicode="&#xcd;" horiz-adv-x="514" d="M152 0v1516h210v-1516h-210zM172 1632l147 305h216l-207 -317z" />
<glyph unicode="&#xce;" horiz-adv-x="514" d="M-51 1653v157l311 150l311 -150v-157l-311 149zM152 0v1516h210v-1516h-210z" />
<glyph unicode="&#xcf;" horiz-adv-x="514" d="M-96 1784q0 121 125 121t125 -121q0 -66 -32 -95.5t-93 -29.5q-125 0 -125 125zM152 0v1516h210v-1516h-210zM367 1784q0 121 125 121q127 0 126 -121q0 -66 -32.5 -95.5t-93.5 -29.5q-125 0 -125 125z" />
<glyph unicode="&#xd0;" horiz-adv-x="1353" d="M2 676v166h180v665q115 14 208 21.5t167 7.5q186 0 320.5 -46t221.5 -141.5t128 -243t41 -349.5q0 -207 -43 -355.5t-136.5 -244t-237.5 -140.5t-347 -45q-82 0 -163 5.5t-159 15.5v684h-180zM391 160q53 -6 95 -9.5t85 -3.5q125 0 216.5 34t149.5 107.5t86 189.5t28 278 q0 164 -26 278.5t-82 187t-145 105.5t-214 33q-47 0 -96.5 -4t-96.5 -10v-504h287v-166h-287v-516z" />
<glyph unicode="&#xd1;" horiz-adv-x="1439" d="M152 0v1516h184l651 -994l96 -170h15v1164h190v-1516h-184l-649 989l-99 176l-16 -2v-1163h-188zM360 1739q49 80 114 126t128 46q43 0 81 -13.5t75 -30t72.5 -29.5t74.5 -13q78 0 148 82l51 -49q-43 -86 -108.5 -130.5t-131.5 -44.5q-41 0 -78.5 12.5t-74.5 28t-73 28.5 t-75 13q-78 0 -155 -77z" />
<glyph unicode="&#xd2;" horiz-adv-x="1374" d="M86 756q0 780 600 780q299 0 450.5 -193.5t151.5 -586.5q0 -389 -151.5 -582.5t-450.5 -193.5q-600 0 -600 776zM301 756q0 -158 22.5 -271.5t69.5 -186.5t120 -106.5t173 -33.5t174 33.5t121 106.5t69.5 186.5t22.5 271.5q0 317 -92 459.5t-295 142.5 q-201 0 -293 -142.5t-92 -459.5zM393 1937h215l148 -290l-156 -27z" />
<glyph unicode="&#xd3;" horiz-adv-x="1374" d="M86 756q0 780 600 780q299 0 450.5 -193.5t151.5 -586.5q0 -389 -151.5 -582.5t-450.5 -193.5q-600 0 -600 776zM301 756q0 -158 22.5 -271.5t69.5 -186.5t120 -106.5t173 -33.5t174 33.5t121 106.5t69.5 186.5t22.5 271.5q0 317 -92 459.5t-295 142.5 q-201 0 -293 -142.5t-92 -459.5zM600 1632l148 305h215l-207 -317z" />
<glyph unicode="&#xd4;" horiz-adv-x="1374" d="M86 756q0 780 600 780q299 0 450.5 -193.5t151.5 -586.5q0 -389 -151.5 -582.5t-450.5 -193.5q-600 0 -600 776zM301 756q0 -158 22.5 -271.5t69.5 -186.5t120 -106.5t173 -33.5t174 33.5t121 106.5t69.5 186.5t22.5 271.5q0 317 -92 459.5t-295 142.5 q-201 0 -293 -142.5t-92 -459.5zM377 1653v157l311 150l311 -150v-157l-311 149z" />
<glyph unicode="&#xd5;" horiz-adv-x="1374" d="M86 756q0 780 600 780q299 0 450.5 -193.5t151.5 -586.5q0 -389 -151.5 -582.5t-450.5 -193.5q-600 0 -600 776zM301 756q0 -158 22.5 -271.5t69.5 -186.5t120 -106.5t173 -33.5t174 33.5t121 106.5t69.5 186.5t22.5 271.5q0 317 -92 459.5t-295 142.5 q-201 0 -293 -142.5t-92 -459.5zM328 1739q49 80 113.5 126t127.5 46q43 0 81 -13.5t75 -30t73 -29.5t74 -13q78 0 148 82l51 -49q-43 -86 -108.5 -130.5t-131.5 -44.5q-41 0 -78.5 12.5t-74.5 28t-73 28.5t-75 13q-78 0 -155 -77z" />
<glyph unicode="&#xd6;" horiz-adv-x="1374" d="M86 756q0 780 600 780q299 0 450.5 -193.5t151.5 -586.5q0 -389 -151.5 -582.5t-450.5 -193.5q-600 0 -600 776zM301 756q0 -158 22.5 -271.5t69.5 -186.5t120 -106.5t173 -33.5t174 33.5t121 106.5t69.5 186.5t22.5 271.5q0 317 -92 459.5t-295 142.5 q-201 0 -293 -142.5t-92 -459.5zM328 1784q0 121 125 121t125 -121q0 -66 -32 -95.5t-93 -29.5q-125 0 -125 125zM791 1784q0 121 124 121q127 0 127 -121q0 -66 -33 -95.5t-94 -29.5q-125 0 -124 125z" />
<glyph unicode="&#xd7;" horiz-adv-x="954" d="M94 485l273 273l-273 274l109 109l272 -275l275 275l108 -109l-274 -274l274 -273l-106 -108l-277 272l-272 -272z" />
<glyph unicode="&#xd8;" horiz-adv-x="1386" d="M41 0l168 225q-115 193 -115 531q0 780 600 780q246 0 396 -137l88 117h168l-170 -226q119 -197 118 -534q0 -776 -600 -776q-252 0 -397 137l-86 -117h-170zM309 756q0 -213 39 -344l621 827q-92 119 -275 119q-201 0 -293 -142.5t-92 -459.5zM416 276q92 -118 278 -118 q100 0 174 33.5t120 106.5t68.5 186.5t22.5 271.5q0 213 -43 348z" />
<glyph unicode="&#xd9;" horiz-adv-x="1398" d="M139 598v918h209v-912q0 -236 84 -340t266 -104q184 0 267.5 103.5t83.5 340.5v912h211v-918q0 -160 -31 -276.5t-98.5 -192.5t-174 -112.5t-258.5 -36.5t-258 36.5t-172.5 112.5t-97.5 192.5t-31 276.5zM403 1937h215l148 -290l-156 -27z" />
<glyph unicode="&#xda;" horiz-adv-x="1398" d="M139 598v918h209v-912q0 -236 84 -340t266 -104q184 0 267.5 103.5t83.5 340.5v912h211v-918q0 -160 -31 -276.5t-98.5 -192.5t-174 -112.5t-258.5 -36.5t-258 36.5t-172.5 112.5t-97.5 192.5t-31 276.5zM602 1632l148 305h215l-207 -317z" />
<glyph unicode="&#xdb;" horiz-adv-x="1398" d="M139 598v918h209v-912q0 -236 84 -340t266 -104q184 0 267.5 103.5t83.5 340.5v912h211v-918q0 -160 -31 -276.5t-98.5 -192.5t-174 -112.5t-258.5 -36.5t-258 36.5t-172.5 112.5t-97.5 192.5t-31 276.5zM381 1653v157l311 150l312 -150v-157l-312 149z" />
<glyph unicode="&#xdc;" horiz-adv-x="1398" d="M139 598v918h209v-912q0 -236 84 -340t266 -104q184 0 267.5 103.5t83.5 340.5v912h211v-918q0 -160 -31 -276.5t-98.5 -192.5t-174 -112.5t-258.5 -36.5t-258 36.5t-172.5 112.5t-97.5 192.5t-31 276.5zM336 1784q0 121 125 121t125 -121q0 -66 -32 -95.5t-93 -29.5 q-125 0 -125 125zM799 1784q0 121 125 121q127 0 127 -121q0 -66 -33 -95.5t-94 -29.5q-125 0 -125 125z" />
<glyph unicode="&#xdd;" horiz-adv-x="1222" d="M-4 1516h233l326 -682l47 -121h19l47 121l327 682h230l-508 -1004v-512h-209v506zM528 1632l148 305h215l-207 -317z" />
<glyph unicode="&#xde;" horiz-adv-x="1196" d="M152 0v1516h210v-242q76 6 150 6q324 0 473.5 -125t149.5 -399q0 -272 -148.5 -396t-476.5 -124h-74t-74 2v-238h-210zM362 422q14 -2 37 -4t47.5 -3t48.5 -2t40 -1q104 0 177.5 18.5t120 60t68 107.5t21.5 158t-20.5 158.5t-67 107.5t-119 60.5t-176.5 19.5 q-16 0 -39 -1t-47.5 -2t-48 -4t-42.5 -8v-665z" />
<glyph unicode="&#xdf;" horiz-adv-x="1241" d="M129 0v1212q0 236 113.5 342.5t353.5 106.5q242 0 356.5 -107.5t114.5 -341.5v-243h-188q-94 0 -146.5 -44t-52.5 -114q0 -45 15.5 -73.5t42 -47t62.5 -30t77 -21.5q66 -16 123 -36.5t99 -57.5t66.5 -93.5t24.5 -140.5q0 -156 -102.5 -245t-284.5 -89q-70 0 -147.5 12.5 t-178.5 35.5v157q80 -23 162 -35t156 -12q96 0 146 43t50 121q0 76 -45 117t-135 59q-55 12 -112.5 26.5t-104.5 48.5t-78 94.5t-31 160.5q0 147 100.5 235t274.5 90v82q0 154 -60.5 218.5t-201.5 64.5t-201.5 -64.5t-60.5 -218.5v-1212h-207z" />
<glyph unicode="&#xe0;" horiz-adv-x="1003" d="M61 289q0 315 398 342l217 14v80q0 68 -11.5 113t-38 72.5t-70.5 40t-110 12.5q-55 0 -138 -9.5t-154 -25.5l-15 157q90 16 177 25.5t165 9.5q207 0 304.5 -85t97.5 -267v-768h-172l-19 135h-14q-72 -61 -157 -103t-177 -42q-133 0 -208 78.5t-75 220.5zM227 1647h217 l144 -375l-150 -21zM268 307q0 -160 152 -160q31 0 65.5 10.5t68.5 27t64.5 36t57.5 35.5v258l-166 -14q-131 -10 -186.5 -56.5t-55.5 -136.5z" />
<glyph unicode="&#xe1;" horiz-adv-x="1003" d="M61 289q0 315 398 342l217 14v80q0 68 -11.5 113t-38 72.5t-70.5 40t-110 12.5q-55 0 -138 -9.5t-154 -25.5l-15 157q90 16 177 25.5t165 9.5q207 0 304.5 -85t97.5 -267v-768h-172l-19 135h-14q-72 -61 -157 -103t-177 -42q-133 0 -208 78.5t-75 220.5zM268 307 q0 -160 152 -160q31 0 65.5 10.5t68.5 27t64.5 36t57.5 35.5v258l-166 -14q-131 -10 -186.5 -56.5t-55.5 -136.5zM434 1264l144 378h213l-209 -393z" />
<glyph unicode="&#xe2;" horiz-adv-x="1003" d="M61 289q0 315 398 342l217 14v80q0 68 -11.5 113t-38 72.5t-70.5 40t-110 12.5q-55 0 -138 -9.5t-154 -25.5l-15 157q90 16 177 25.5t165 9.5q207 0 304.5 -85t97.5 -267v-768h-172l-19 135h-14q-72 -61 -157 -103t-177 -42q-133 0 -208 78.5t-75 220.5zM207 1284v156 l309 149l313 -149v-156l-311 148zM268 307q0 -160 152 -160q31 0 65.5 10.5t68.5 27t64.5 36t57.5 35.5v258l-166 -14q-131 -10 -186.5 -56.5t-55.5 -136.5z" />
<glyph unicode="&#xe3;" horiz-adv-x="1003" d="M61 289q0 315 398 342l217 14v80q0 68 -11.5 113t-38 72.5t-70.5 40t-110 12.5q-55 0 -138 -9.5t-154 -25.5l-15 157q90 16 177 25.5t165 9.5q207 0 304.5 -85t97.5 -267v-768h-172l-19 135h-14q-72 -61 -157 -103t-177 -42q-133 0 -208 78.5t-75 220.5zM143 1360 q47 78 113 120t129 42q43 0 81 -15.5t72.5 -33t70.5 -33t77 -15.5q72 0 141 82l60 -57q-45 -84 -110.5 -126t-131.5 -42q-41 0 -78 15.5t-73.5 33t-73.5 32.5t-76 15q-76 0 -145 -80zM268 307q0 -160 152 -160q31 0 65.5 10.5t68.5 27t64.5 36t57.5 35.5v258l-166 -14 q-131 -10 -186.5 -56.5t-55.5 -136.5z" />
<glyph unicode="&#xe4;" horiz-adv-x="1003" d="M61 289q0 315 398 342l217 14v80q0 68 -11.5 113t-38 72.5t-70.5 40t-110 12.5q-55 0 -138 -9.5t-154 -25.5l-15 157q90 16 177 25.5t165 9.5q207 0 304.5 -85t97.5 -267v-768h-172l-19 135h-14q-72 -61 -157 -103t-177 -42q-133 0 -208 78.5t-75 220.5zM180 1403 q0 59 28 84.5t85 25.5q115 0 115 -110q0 -59 -29 -85t-86 -26t-85 25.5t-28 85.5zM268 307q0 -160 152 -160q31 0 65.5 10.5t68.5 27t64.5 36t57.5 35.5v258l-166 -14q-131 -10 -186.5 -56.5t-55.5 -136.5zM614 1403q0 59 28 84.5t87 25.5q113 0 113 -110q0 -59 -30 -85 t-83 -26q-59 0 -87 25.5t-28 85.5z" />
<glyph unicode="&#xe5;" horiz-adv-x="1003" d="M61 289q0 315 398 342l217 14v80q0 68 -11.5 113t-38 72.5t-70.5 40t-110 12.5q-55 0 -138 -9.5t-154 -25.5l-15 157q90 16 177 25.5t165 9.5q207 0 304.5 -85t97.5 -267v-768h-172l-19 135h-14q-72 -61 -157 -103t-177 -42q-133 0 -208 78.5t-75 220.5zM268 307 q0 -160 152 -160q31 0 65.5 10.5t68.5 27t64.5 36t57.5 35.5v258l-166 -14q-131 -10 -186.5 -56.5t-55.5 -136.5zM279 1456q0 94 61 156.5t166 62.5q104 0 166.5 -62.5t62.5 -156.5q0 -96 -62.5 -158.5t-166.5 -62.5t-165.5 62.5t-61.5 158.5zM389 1456q0 -57 31 -91t86 -34 q59 0 90 35t31 90t-31 89t-90 34q-57 0 -87 -34t-30 -89z" />
<glyph unicode="&#xe6;" horiz-adv-x="1609" d="M61 289q0 160 97.5 241.5t300.5 98.5l219 16v103q0 119 -53.5 167t-180.5 48q-29 0 -64.5 -3.5t-74.5 -7.5t-78 -10t-71 -14l-17 157q96 16 183.5 25.5t160.5 9.5q244 0 310 -178h12q109 180 342 180q385 0 385 -489q0 -53 -2 -86t-6 -64h-639q6 -174 73.5 -257 t208.5 -83q68 0 148 14.5t168 47.5l10 -160q-72 -31 -163 -48t-175 -17q-256 0 -369 188l-14 2q-141 -96 -238.5 -138t-189.5 -42q-133 0 -208 78.5t-75 220.5zM270 307q0 -160 150 -160q59 0 123.5 33t150.5 92q-4 12 -7 45t-5 70t-3 73t-1 56l-168 -16 q-131 -12 -185.5 -56.5t-54.5 -136.5zM885 616h461q-6 186 -53.5 267.5t-151.5 81.5q-240 0 -256 -349z" />
<glyph unicode="&#xe7;" horiz-adv-x="868" d="M78 553q0 573 491 573q102 0 222 -28v-170q-53 12 -103.5 17t-97.5 5q-158 0 -229.5 -94t-71.5 -303t70.5 -304t228.5 -95q49 0 97 5t106 19v-168q-41 -12 -92.5 -20t-104.5 -10q35 -59 49 -108.5t14 -98.5q0 -106 -60 -165t-173 -59q-76 0 -162 23v137q31 -10 65.5 -15 t63.5 -5q119 0 119 108q0 80 -66 193q-367 63 -366 563z" />
<glyph unicode="&#xe8;" horiz-adv-x="1007" d="M80 537q0 289 118.5 438t348.5 149q387 0 387 -491q0 -51 -3 -86t-7 -68h-637q10 -178 76.5 -256t205.5 -78q68 0 148 15.5t166 44.5l10 -160q-72 -29 -163 -46t-177 -17q-231 0 -352 141t-121 414zM229 1647h217l144 -375l-150 -21zM289 623h456q-4 184 -52 264t-152 80 q-231 0 -252 -344z" />
<glyph unicode="&#xe9;" horiz-adv-x="1007" d="M80 537q0 289 118.5 438t348.5 149q387 0 387 -491q0 -51 -3 -86t-7 -68h-637q10 -178 76.5 -256t205.5 -78q68 0 148 15.5t166 44.5l10 -160q-72 -29 -163 -46t-177 -17q-231 0 -352 141t-121 414zM289 623h456q-4 184 -52 264t-152 80q-231 0 -252 -344zM457 1264 l143 378h213l-209 -393z" />
<glyph unicode="&#xea;" horiz-adv-x="1007" d="M80 537q0 289 118.5 438t348.5 149q387 0 387 -491q0 -51 -3 -86t-7 -68h-637q10 -178 76.5 -256t205.5 -78q68 0 148 15.5t166 44.5l10 -160q-72 -29 -163 -46t-177 -17q-231 0 -352 141t-121 414zM215 1284v156l309 149l314 -149v-156l-312 148zM289 623h456 q-4 184 -52 264t-152 80q-231 0 -252 -344z" />
<glyph unicode="&#xeb;" horiz-adv-x="1007" d="M80 537q0 289 118.5 438t348.5 149q387 0 387 -491q0 -51 -3 -86t-7 -68h-637q10 -178 76.5 -256t205.5 -78q68 0 148 15.5t166 44.5l10 -160q-72 -29 -163 -46t-177 -17q-231 0 -352 141t-121 414zM190 1403q0 59 28 84.5t85 25.5q115 0 115 -110q0 -59 -29 -85t-86 -26 t-85 25.5t-28 85.5zM289 623h456q-4 184 -52 264t-152 80q-231 0 -252 -344zM625 1403q0 59 27.5 84.5t86.5 25.5q113 0 113 -110q0 -59 -30 -85t-83 -26q-59 0 -86.5 25.5t-27.5 85.5z" />
<glyph unicode="&#xec;" horiz-adv-x="466" d="M-47 1647h217l143 -375l-149 -21zM131 0v1106h205v-1106h-205z" />
<glyph unicode="&#xed;" horiz-adv-x="466" d="M131 0v1106h205v-1106h-205zM164 1264l143 378h213l-209 -393z" />
<glyph unicode="&#xee;" horiz-adv-x="468" d="M-61 1284v156l307 149l307 -149v-156l-307 148zM133 0v1106h205v-1106h-205z" />
<glyph unicode="&#xef;" horiz-adv-x="468" d="M-86 1403q0 59 27.5 84.5t85.5 25.5q115 0 114 -110q0 -59 -28.5 -85t-85.5 -26t-85 25.5t-28 85.5zM133 0v1106h205v-1106h-205zM338 1403q0 59 27.5 84.5t87.5 25.5q113 0 112 -110q0 -59 -28.5 -85t-83.5 -26q-59 0 -87 25.5t-28 85.5z" />
<glyph unicode="&#xf0;" horiz-adv-x="1110" d="M78 553q0 281 119.5 427t345.5 146q147 0 231 -110q-18 72 -43.5 142.5t-56.5 139.5l-268 -32v139l202 25q-33 59 -69.5 115.5t-77.5 109.5h213q33 -47 63.5 -97.5t59.5 -103.5l258 33v-139l-195 -25q72 -166 116 -354.5t44 -395.5q0 -293 -120 -443t-351 -150 q-229 0 -350 146t-121 427zM287 553q0 -219 61.5 -313.5t200.5 -94.5q137 0 199.5 97.5t62.5 318.5q0 84 -12.5 157t-42 127t-80.5 85t-127 31q-139 0 -200.5 -94.5t-61.5 -313.5z" />
<glyph unicode="&#xf1;" horiz-adv-x="1099" d="M129 0v1106h174l14 -121h9q127 76 217 108.5t176 32.5q129 0 192.5 -71.5t63.5 -223.5v-831h-205v768q0 98 -34 139t-103 41q-66 0 -140.5 -27.5t-156.5 -74.5v-846h-207zM195 1360q47 78 112.5 120t128.5 42q43 0 81 -15.5t73 -33t70.5 -33t76.5 -15.5q72 0 142 82 l59 -57q-45 -84 -110.5 -126t-131.5 -42q-41 0 -77.5 15.5t-73.5 33t-74 32.5t-76 15q-76 0 -145 -80z" />
<glyph unicode="&#xf2;" d="M78 553q0 281 120.5 427t350.5 146q231 0 351 -146t120 -427t-120 -427t-351 -146q-229 0 -350 146t-121 427zM252 1647h217l143 -375l-149 -21zM287 553q0 -219 61.5 -313.5t200.5 -94.5q137 0 199.5 94.5t62.5 313.5t-61.5 313.5t-200.5 94.5t-200.5 -94.5 t-61.5 -313.5z" />
<glyph unicode="&#xf3;" d="M78 553q0 281 120.5 427t350.5 146q231 0 351 -146t120 -427t-120 -427t-351 -146q-229 0 -350 146t-121 427zM287 553q0 -219 61.5 -313.5t200.5 -94.5q137 0 199.5 94.5t62.5 313.5t-61.5 313.5t-200.5 94.5t-200.5 -94.5t-61.5 -313.5zM463 1264l143 378h213 l-209 -393z" />
<glyph unicode="&#xf4;" d="M78 553q0 281 120.5 427t350.5 146q231 0 351 -146t120 -427t-120 -427t-351 -146q-229 0 -350 146t-121 427zM236 1284v156l309 149l313 -149v-156l-311 148zM287 553q0 -219 61.5 -313.5t200.5 -94.5q137 0 199.5 94.5t62.5 313.5t-61.5 313.5t-200.5 94.5 t-200.5 -94.5t-61.5 -313.5z" />
<glyph unicode="&#xf5;" d="M78 553q0 281 120.5 427t350.5 146q231 0 351 -146t120 -427t-120 -427t-351 -146q-229 0 -350 146t-121 427zM174 1360q47 78 112.5 120t129.5 42q43 0 81 -15.5t72.5 -33t70.5 -33t77 -15.5q72 0 141 82l60 -57q-45 -84 -111 -126t-131 -42q-41 0 -78 15.5t-74 33 t-73.5 32.5t-75.5 15q-76 0 -146 -80zM287 553q0 -219 61.5 -313.5t200.5 -94.5q137 0 199.5 94.5t62.5 313.5t-61.5 313.5t-200.5 94.5t-200.5 -94.5t-61.5 -313.5z" />
<glyph unicode="&#xf6;" d="M78 553q0 281 120.5 427t350.5 146q231 0 351 -146t120 -427t-120 -427t-351 -146q-229 0 -350 146t-121 427zM209 1403q0 59 27.5 84.5t85.5 25.5q115 0 114 -110q0 -59 -28.5 -85t-85.5 -26t-85 25.5t-28 85.5zM287 553q0 -219 61.5 -313.5t200.5 -94.5 q137 0 199.5 94.5t62.5 313.5t-61.5 313.5t-200.5 94.5t-200.5 -94.5t-61.5 -313.5zM643 1403q0 59 27.5 84.5t87.5 25.5q113 0 112 -110q0 -59 -29.5 -85t-82.5 -26q-59 0 -87 25.5t-28 85.5z" />
<glyph unicode="&#xf7;" horiz-adv-x="1042" d="M104 682v152h836v-152h-836zM420 416q0 53 29.5 79.5t76.5 26.5t78 -27.5t31 -78.5q0 -53 -31 -81t-78 -28t-76.5 27.5t-29.5 81.5zM420 1090q0 53 29.5 81.5t76.5 28.5t78 -28.5t31 -81.5t-31 -80t-78 -27t-76.5 26.5t-29.5 80.5z" />
<glyph unicode="&#xf8;" horiz-adv-x="1107" d="M37 0l135 172q-88 145 -88 381q0 281 119 427t352 146q184 0 299 -96l61 76h152l-133 -168q90 -145 90 -385q0 -281 -118 -427t-351 -146q-193 0 -305 98l-62 -78h-151zM293 553q0 -125 18 -207l428 539q-61 76 -184 76q-143 0 -202.5 -95.5t-59.5 -312.5zM365 221 q61 -76 190 -76q141 0 200.5 95.5t59.5 312.5q0 129 -20 211z" />
<glyph unicode="&#xf9;" d="M121 274v832h207v-772q0 -98 31.5 -137t109.5 -39q70 0 139.5 27.5t153.5 80.5v840h207v-1106h-174l-15 121h-8q-63 -39 -113.5 -65.5t-93.5 -44t-84 -24.5t-86 -7q-274 0 -274 294zM258 1647h217l143 -375l-149 -21z" />
<glyph unicode="&#xfa;" d="M121 274v832h207v-772q0 -98 31.5 -137t109.5 -39q70 0 139.5 27.5t153.5 80.5v840h207v-1106h-174l-15 121h-8q-63 -39 -113.5 -65.5t-93.5 -44t-84 -24.5t-86 -7q-274 0 -274 294zM467 1264l143 378h213l-209 -393z" />
<glyph unicode="&#xfb;" d="M121 274v832h207v-772q0 -98 31.5 -137t109.5 -39q70 0 139.5 27.5t153.5 80.5v840h207v-1106h-174l-15 121h-8q-63 -39 -113.5 -65.5t-93.5 -44t-84 -24.5t-86 -7q-274 0 -274 294zM242 1284v156l309 149l313 -149v-156l-311 148z" />
<glyph unicode="&#xfc;" d="M121 274v832h207v-772q0 -98 31.5 -137t109.5 -39q70 0 139.5 27.5t153.5 80.5v840h207v-1106h-174l-15 121h-8q-63 -39 -113.5 -65.5t-93.5 -44t-84 -24.5t-86 -7q-274 0 -274 294zM213 1403q0 59 27.5 84.5t85.5 25.5q115 0 114 -110q0 -59 -28.5 -85t-85.5 -26 t-85 25.5t-28 85.5zM647 1403q0 59 27.5 84.5t87.5 25.5q113 0 112 -110q0 -59 -29.5 -85t-82.5 -26q-59 0 -87 25.5t-28 85.5z" />
<glyph unicode="&#xfd;" horiz-adv-x="1054" d="M20 1087v19h213l252 -744l35 -143h12l37 143l254 744h213v-19l-557 -1538l-203 39v15l146 401zM461 1264l143 378h213l-209 -393z" />
<glyph unicode="&#xfe;" horiz-adv-x="1103" d="M129 -451v2106h207v-658q53 61 132 94t173 33q383 0 383 -546q0 -295 -131 -446.5t-387 -151.5q-39 0 -83 5t-87 11v-447h-207zM336 152q94 -23 174 -23q78 0 135 22.5t94 73.5t55.5 133t18.5 199q0 225 -57.5 318.5t-180.5 93.5q-106 0 -172.5 -72t-66.5 -219v-526z" />
<glyph unicode="&#xff;" horiz-adv-x="1054" d="M20 1087v19h213l252 -744l35 -143h12l37 143l254 744h213v-19l-557 -1538l-203 39v15l146 401zM205 1403q0 59 27.5 84.5t84.5 25.5q115 0 115 -110q0 -59 -29 -85t-86 -26t-84.5 25.5t-27.5 85.5zM639 1403q0 59 27.5 84.5t87.5 25.5q113 0 112 -110q0 -59 -29.5 -85 t-82.5 -26q-59 0 -87 25.5t-28 85.5z" />
<glyph unicode="&#x152;" horiz-adv-x="1820" d="M86 756q0 387 157.5 579.5t456.5 192.5q51 0 104.5 -3t94.5 -9h819v-179h-612v-481h563v-172h-563v-506h631v-178h-838q-41 -6 -94.5 -9t-104.5 -3q-301 0 -457.5 191.5t-156.5 576.5zM299 756q0 -158 23.5 -269.5t73.5 -182.5t129 -104.5t192 -33.5q43 0 91 3t87 9v1157 q-41 8 -88 11.5t-92 3.5q-221 0 -318.5 -141.5t-97.5 -452.5z" />
<glyph unicode="&#x153;" horiz-adv-x="1742" d="M78 553q0 281 120.5 427t350.5 146q266 0 360 -235h15q47 115 137 174t221 59q385 0 385 -489q0 -53 -2 -85t-8 -67h-637q6 -174 74.5 -256t205.5 -82q143 0 316 60l10 -160q-72 -29 -162 -46t-176 -17q-135 0 -227 58t-141 169h-11q-100 -229 -360 -229q-229 0 -350 146 t-121 427zM287 553q0 -219 61.5 -313.5t200.5 -94.5q137 0 199.5 94.5t62.5 313.5t-61.5 313.5t-200.5 94.5t-200.5 -94.5t-61.5 -313.5zM1020 618h459q-4 186 -51.5 267.5t-151.5 81.5q-238 0 -256 -349z" />
<glyph unicode="&#x178;" horiz-adv-x="1222" d="M-4 1516h233l326 -682l47 -121h19l47 121l327 682h230l-508 -1004v-512h-209v506zM258 1784q0 121 125 121t125 -121q0 -66 -32 -95.5t-93 -29.5q-125 0 -125 125zM721 1784q0 121 125 121q127 0 127 -121q0 -66 -33 -95.5t-94 -29.5q-125 0 -125 125z" />
<glyph unicode="&#x2c6;" horiz-adv-x="804" d="M82 1284v156l309 149l314 -149v-156l-312 148z" />
<glyph unicode="&#x2dc;" horiz-adv-x="901" d="M63 1360q47 78 113 120t129 42q43 0 81 -15.5t73 -33t70.5 -33t76.5 -15.5q72 0 142 82l59 -57q-45 -84 -110.5 -126t-131.5 -42q-41 0 -77.5 15.5t-73.5 33t-74 32.5t-76 15q-76 0 -145 -80z" />
<glyph unicode="&#x2000;" horiz-adv-x="985" />
<glyph unicode="&#x2001;" horiz-adv-x="1970" />
<glyph unicode="&#x2002;" horiz-adv-x="985" />
<glyph unicode="&#x2003;" horiz-adv-x="1970" />
<glyph unicode="&#x2004;" horiz-adv-x="656" />
<glyph unicode="&#x2005;" horiz-adv-x="492" />
<glyph unicode="&#x2006;" horiz-adv-x="328" />
<glyph unicode="&#x2007;" horiz-adv-x="328" />
<glyph unicode="&#x2008;" horiz-adv-x="246" />
<glyph unicode="&#x2009;" horiz-adv-x="394" />
<glyph unicode="&#x200a;" horiz-adv-x="109" />
<glyph unicode="&#x2010;" horiz-adv-x="800" d="M115 492v163h571v-163h-571z" />
<glyph unicode="&#x2011;" horiz-adv-x="800" d="M115 492v163h571v-163h-571z" />
<glyph unicode="&#x2012;" horiz-adv-x="800" d="M115 492v163h571v-163h-571z" />
<glyph unicode="&#x2013;" horiz-adv-x="1122" d="M123 492v163h876v-163h-876z" />
<glyph unicode="&#x2014;" horiz-adv-x="1472" d="M123 492v163h1227v-163h-1227z" />
<glyph unicode="&#x2018;" horiz-adv-x="395" d="M92 1257q0 104 33 213t88 191l100 -14q-29 -76 -46 -164t-17 -168q0 -59 10 -117.5t33 -122.5l-168 -18q-33 84 -33 200z" />
<glyph unicode="&#x2019;" horiz-adv-x="393" d="M86 1071q31 76 48.5 163t17.5 169q0 119 -48 239l170 19q35 -84 35 -203q0 -104 -33.5 -212.5t-89.5 -188.5z" />
<glyph unicode="&#x201a;" horiz-adv-x="407" d="M72 -276q31 76 48 162.5t17 168.5q0 119 -47 240l170 18q35 -84 35 -202q0 -104 -34 -213t-89 -189z" />
<glyph unicode="&#x201c;" horiz-adv-x="821" d="M92 1257q0 104 33 213t88 191l100 -14q-29 -76 -46 -164t-17 -168q0 -59 10 -117.5t33 -122.5l-168 -18q-33 84 -33 200zM516 1257q0 104 33 213t88 191l100 -14q-29 -76 -46 -164t-17 -168q0 -59 10 -117.5t33 -122.5l-168 -18q-33 84 -33 200z" />
<glyph unicode="&#x201d;" horiz-adv-x="815" d="M86 1071q31 76 48.5 163t17.5 169q0 119 -48 239l170 19q35 -84 35 -203q0 -104 -33.5 -212.5t-89.5 -188.5zM510 1071q31 76 48 163t17 169q0 119 -47 239l170 19q35 -84 35 -203q0 -104 -33.5 -212.5t-89.5 -188.5z" />
<glyph unicode="&#x201e;" horiz-adv-x="831" d="M72 -276q31 76 48 162.5t17 168.5q0 119 -47 240l170 18q35 -84 35 -202q0 -104 -34 -213t-89 -189zM494 -276q31 76 48 162.5t17 168.5q0 119 -47 240l170 18q35 -84 35 -202q0 -104 -34 -213t-89 -189z" />
<glyph unicode="&#x2022;" horiz-adv-x="641" d="M141 758q0 96 51.5 137t129.5 41q76 0 127 -41t51 -137t-51 -136t-127 -40q-78 0 -129.5 40t-51.5 136z" />
<glyph unicode="&#x2026;" horiz-adv-x="1386" d="M100 115q0 123 127 123q129 0 129 -123t-129 -123q-127 0 -127 123zM571 115q0 123 127 123q129 0 129 -123t-129 -123q-127 0 -127 123zM1030 115q0 123 127 123q129 0 129 -123t-129 -123q-127 0 -127 123z" />
<glyph unicode="&#x202f;" horiz-adv-x="394" />
<glyph unicode="&#x2039;" horiz-adv-x="604" d="M66 549v8l251 487h211l-249 -487v-8l249 -488h-211z" />
<glyph unicode="&#x203a;" horiz-adv-x="604" d="M76 61l252 488v8l-252 487h211l252 -487v-8l-252 -488h-211z" />
<glyph unicode="&#x205f;" horiz-adv-x="492" />
<glyph unicode="&#x20ac;" horiz-adv-x="1167" d="M76 520v131h153q-2 25 -2 50.5v54.5v55.5t2 52.5h-153v131h168q43 279 200.5 409t450.5 130q66 0 112 -5t87 -16l-52 -170q-27 4 -55.5 6.5t-60.5 2.5q-109 0 -190 -18.5t-138 -61.5t-91 -110.5t-50 -166.5h485l-39 -131h-461q-2 -27 -2 -53.5v-54.5v-54.5t2 -50.5h432 l-38 -131h-379q16 -96 51 -164.5t91 -111.5t135 -63.5t186 -20.5q35 0 74.5 5t78.5 13v-180q-66 -18 -174 -18q-291 2 -450.5 134t-204.5 406h-168z" />
<glyph unicode="&#x2122;" horiz-adv-x="1742" d="M57 1389v127h625v-127h-240v-734h-145v734h-240zM782 655v861h185l229 -619l229 619h185v-861h-135v623l-215 -584h-125l-215 582v-621h-138z" />
<glyph unicode="&#x25fc;" horiz-adv-x="1105" d="M0 0v1106h1106v-1106h-1106z" />
</font>
</defs>
</svg>
