<?xml version="1.0" standalone="no"?>
<!DOCTYPE svg PUBLIC "-//W3C//DTD SVG 1.1//EN" "http://www.w3.org/Graphics/SVG/1.1/DTD/svg11.dtd" >
<svg xmlns="http://www.w3.org/2000/svg" xmlns:xlink="http://www.w3.org/1999/xlink" version="1.1">
<metadata></metadata>
<defs>
<font id="encode_sans_condensedsemibold" horiz-adv-x="1038" >
<font-face units-per-em="2048" ascent="1638" descent="-410" />
<missing-glyph horiz-adv-x="399" />
<glyph unicode="&#xfb01;" horiz-adv-x="1243" d="M29 889v217h182v61q0 137 26.5 230.5t88 151t163 85t252.5 33.5l13 -197q-86 -6 -141.5 -20t-87 -46t-45 -83t-13.5 -131v-84h240v-217h-240v-889h-258v889h-180zM846 1444q0 76 34.5 110.5t112.5 34.5q150 0 150 -145q0 -74 -36 -110t-114 -36t-112.5 35t-34.5 111z M864 0v1106h256v-1106h-256z" />
<glyph unicode="&#xfb02;" horiz-adv-x="1245" d="M29 889v217h182v61q0 137 26.5 230.5t88 151t163 85t252.5 33.5l13 -197q-86 -6 -141.5 -20t-87 -46t-45 -83t-13.5 -131v-84h240v-217h-240v-889h-258v889h-180zM864 0v1655h258v-1655h-258z" />
<glyph unicode="&#xfb03;" horiz-adv-x="1943" d="M29 889v217h182v61q0 137 26.5 230.5t88 151t163 85t252.5 33.5l13 -197q-86 -6 -141.5 -20t-87 -46t-45 -83t-13.5 -131v-84h240v-217h-240v-889h-258v889h-180zM729 889v217h182v61q0 137 27 230.5t88 151t162.5 85t253.5 33.5l12 -197q-86 -6 -141.5 -20t-87 -46 t-45 -83t-13.5 -131v-84h240v-217h-240v-889h-258v889h-180zM1546 1444q0 76 35 110.5t113 34.5q150 0 149 -145q0 -74 -35.5 -110t-113.5 -36t-113 35t-35 111zM1565 0v1106h256v-1106h-256z" />
<glyph unicode="&#xfb04;" horiz-adv-x="1945" d="M29 889v217h182v61q0 137 26.5 230.5t88 151t163 85t252.5 33.5l13 -197q-86 -6 -141.5 -20t-87 -46t-45 -83t-13.5 -131v-84h240v-217h-240v-889h-258v889h-180zM729 889v217h182v61q0 137 27 230.5t88 151t162.5 85t253.5 33.5l12 -197q-86 -6 -141.5 -20t-87 -46 t-45 -83t-13.5 -131v-84h240v-217h-240v-889h-258v889h-180zM1565 0v1655h258v-1655h-258z" />
<glyph horiz-adv-x="0" />
<glyph unicode="&#xd;" horiz-adv-x="573" />
<glyph horiz-adv-x="0" />
<glyph horiz-adv-x="0" />
<glyph unicode=" "  horiz-adv-x="399" />
<glyph unicode="&#x09;" horiz-adv-x="399" />
<glyph unicode="&#xa0;" horiz-adv-x="399" />
<glyph unicode="!" horiz-adv-x="524" d="M119 135q0 66 38 103.5t107 37.5q72 0 111 -37.5t39 -103.5q0 -68 -39 -104.5t-111 -36.5q-70 0 -107.5 37t-37.5 104zM129 1495v21h266v-21l-51 -1022v-24h-162v24z" />
<glyph unicode="&#x22;" horiz-adv-x="776" d="M111 983v672h208v-8l-73 -664h-135zM489 983v672h209v-8l-73 -664h-136z" />
<glyph unicode="#" horiz-adv-x="1101" d="M84 436v168h166l24 307h-190v168h203l37 437h180l-37 -437h207l37 437h182l-37 -437h162v-168h-174l-25 -307h197v-168h-211l-35 -436h-182l35 436h-207l-35 -436h-180l35 436h-152zM430 604h207l25 307h-207z" />
<glyph unicode="$" horiz-adv-x="1099" d="M74 47l6 221q45 -16 98 -29.5t108.5 -23.5t109 -15t98.5 -5q279 0 278 211q0 51 -20.5 88.5t-57.5 66.5t-90 50.5t-121 43.5q-92 29 -164.5 65t-123 88t-77 125t-26.5 177q0 166 95.5 274.5t267.5 141.5v280h225v-270q66 -4 137.5 -16.5t155.5 -32.5l-4 -215 q-92 25 -185.5 38t-162.5 13q-125 0 -193 -55.5t-68 -155.5q0 -49 18.5 -85t56.5 -64.5t93.5 -53t128.5 -49.5q88 -31 159 -66.5t120 -87t75.5 -121t26.5 -167.5q0 -174 -91 -282.5t-257 -143.5v-283h-223v268q-94 4 -197.5 22.5t-195.5 47.5z" />
<glyph unicode="%" horiz-adv-x="1912" d="M63 1053q0 238 93.5 360.5t273.5 122.5t273.5 -123t93.5 -360q0 -240 -93.5 -361t-273.5 -121t-273.5 121t-93.5 361zM258 1053q0 -164 41 -238t131 -74t131 74t41 238t-42 237.5t-130 73.5t-130 -75t-42 -236zM551 0l590 1516h217l-590 -1516h-217zM1116 459 q0 238 94.5 360.5t274.5 122.5t273 -123t93 -360q0 -240 -93 -361t-273 -121t-274.5 121t-94.5 361zM1311 459q0 -164 42 -238t132 -74q88 0 129 74t41 238t-42 237.5t-128 73.5q-90 0 -132 -74.5t-42 -236.5z" />
<glyph unicode="&#x26;" horiz-adv-x="1382" d="M82 422q0 141 67.5 241.5t192.5 147.5q-70 84 -98.5 165t-28.5 173q0 188 121 289.5t346 101.5q86 0 172 -16.5t186 -50.5l2 -11l-32 -188h-13q-78 31 -153.5 47t-138.5 16q-233 0 -234 -219q0 -57 21.5 -109.5t66.5 -104.5t114.5 -107.5t166.5 -116.5l157 -100 q6 57 7 120v152l229 10v-160q0 -70 -7 -132t-20 -119l166 -103v-12l-96 -203h-14l-144 96q-156 -249 -502 -249q-123 0 -222 30.5t-168.5 88t-106.5 139t-37 184.5zM340 436q0 -119 79 -189.5t212 -70.5q219 0 307 174l-199 135q-78 53 -141 99.5t-117 91.5 q-141 -72 -141 -240z" />
<glyph unicode="'" horiz-adv-x="395" d="M111 983v672h208v-8l-73 -664h-135z" />
<glyph unicode="(" horiz-adv-x="626" d="M68 725q0 287 79.5 555t235.5 498h227v-9q-156 -227 -242.5 -493t-86.5 -551t87 -551t242 -493v-9h-227q-156 229 -235.5 498.5t-79.5 554.5z" />
<glyph unicode=")" horiz-adv-x="626" d="M18 -319q154 227 241 493t87 551t-87 551t-241 493v9h226q156 -229 234.5 -497.5t78.5 -555.5q0 -285 -79 -554t-234 -499h-226v9z" />
<glyph unicode="*" horiz-adv-x="999" d="M68 1337l51 158l151 -49l193 -111l-45 219v160h164v-160l-45 -219l192 111l152 49l49 -158l-150 -49l-219 -22l164 -150l92 -129l-131 -96l-94 129l-94 207l-90 -207l-95 -129l-133 96l92 129l164 150l-219 22z" />
<glyph unicode="+" horiz-adv-x="1017" d="M74 666v184h344v336h182v-336h344v-184h-344v-336h-182v336h-344z" />
<glyph unicode="," horiz-adv-x="485" d="M39 -297l90 571h264l-160 -591z" />
<glyph unicode="-" horiz-adv-x="837" d="M109 475v197h620v-197h-620z" />
<glyph unicode="." horiz-adv-x="481" d="M90 135q0 145 150 146q154 0 153 -146q1 -145 -153 -145q-150 0 -150 145z" />
<glyph unicode="/" horiz-adv-x="716" d="M53 -246l385 1762h226l-385 -1762h-226z" />
<glyph unicode="0" horiz-adv-x="1259" d="M86 756q0 387 138 583.5t407 196.5q266 0 404.5 -196.5t138.5 -583.5q0 -385 -138.5 -580.5t-404.5 -195.5q-268 0 -406.5 195.5t-138.5 580.5zM348 756q0 -293 68 -426t215 -133q145 0 212.5 132t67.5 427t-68.5 429t-211.5 134q-147 0 -215 -134t-68 -429z" />
<glyph unicode="1" horiz-adv-x="804" d="M25 1221l4 26l420 269h196v-1516h-264v1223h-8l-279 -136h-26z" />
<glyph unicode="2" horiz-adv-x="1046" d="M74 0v227q0 98 22.5 175t69.5 143.5t116.5 124t166.5 114.5q68 41 114.5 78t76.5 75t43 79t13 88q0 109 -62.5 160t-197.5 51q-68 0 -145.5 -12.5t-155.5 -34.5l-24 213q115 29 211 41t182 12q455 0 454 -401q0 -158 -79.5 -273t-247.5 -221q-80 -55 -134.5 -98t-87 -83 t-47 -80t-14.5 -87v-72h606v-219h-880z" />
<glyph unicode="3" horiz-adv-x="995" d="M86 1503q68 16 144.5 24.5t148.5 8.5q494 0 493 -387q0 -143 -64.5 -235.5t-186.5 -125.5v-10q141 -31 216.5 -127t75.5 -245q0 -203 -138 -312.5t-396 -111.5q-72 0 -147.5 6t-141.5 20v201h10q43 -12 111 -20.5t127 -8.5q162 0 235.5 59.5t73.5 184.5 q0 135 -75.5 195.5t-256.5 60.5h-82v188h80q160 0 226.5 56.5t66.5 179.5q0 119 -59.5 173t-194.5 54q-47 0 -110.5 -7t-137.5 -21h-12z" />
<glyph unicode="4" horiz-adv-x="1157" d="M31 487v11l493 1038h11l249 -23l11 -16l-494 -956v-11h381l66 463h190v-463h174v-198h-174v-332h-262v332h-608z" />
<glyph unicode="5" horiz-adv-x="993" d="M88 8v209h57q117 -25 211 -24q154 0 228.5 63t74.5 199q0 72 -21.5 121t-68.5 78.5t-123.5 43t-189.5 13.5h-135l-15 14l56 791h686v-218h-483l-27 -393q309 -4 450.5 -108.5t141.5 -345.5q0 -119 -40 -208t-111.5 -148.5t-173 -89.5t-226.5 -30q-66 0 -135.5 8.5 t-155.5 24.5z" />
<glyph unicode="6" horiz-adv-x="1177" d="M84 678q0 420 172 640t506 220q123 0 270 -37l-26 -205q-72 16 -127.5 24.5t-108.5 8.5q-197 0 -299 -124t-125 -380q63 59 147.5 91t176.5 32q102 0 185 -31.5t141.5 -90t90 -141.5t31.5 -187q0 -119 -35.5 -215.5t-101.5 -164t-160 -104.5t-211 -37q-256 0 -391 178.5 t-135 522.5zM340 641q4 -236 69.5 -344.5t200.5 -108.5q119 0 183.5 79t64.5 227q0 268 -248 268q-72 0 -147.5 -34t-122.5 -87z" />
<glyph unicode="7" horiz-adv-x="923" d="M39 1487l31 29h788l37 -146v-51l-459 -1319l-51 -35l-217 35v35l461 1257h-582z" />
<glyph unicode="8" horiz-adv-x="1163" d="M82 379q0 147 63.5 241.5t173.5 153.5q-88 51 -142 136t-54 229q0 92 32.5 165.5t94 124t147.5 78t191 27.5q211 0 331.5 -104.5t120.5 -290.5q0 -131 -48 -211t-148 -140q51 -25 95 -58.5t76 -77.5t49 -103.5t17 -136.5q0 -199 -128.5 -309.5t-370.5 -110.5t-371 101.5 t-129 285.5zM326 410q0 -117 69.5 -179.5t186.5 -62.5q119 0 186.5 58.5t67.5 164.5q0 66 -21.5 113t-61.5 80.5t-95.5 57.5t-125.5 44l-26 8q-78 -47 -129 -112.5t-51 -171.5zM358 1124q0 -59 21.5 -101t59.5 -72.5t92.5 -52t119.5 -40.5q72 43 114 107.5t42 167.5 q0 109 -59.5 164t-165.5 55q-104 0 -164 -58.5t-60 -169.5z" />
<glyph unicode="9" horiz-adv-x="1179" d="M61 1018q0 119 36 215t101.5 163.5t159.5 104.5t211 37q256 0 391.5 -178t135.5 -522q0 -420 -172 -640.5t-506 -220.5q-123 0 -271 37l27 205q72 -16 127 -24.5t109 -8.5q197 0 299 124t125 380q-63 -59 -147.5 -91t-176.5 -32q-102 0 -185 31t-141.5 89t-90.5 142 t-32 189zM322 1022q-1 -268 247 -268q72 0 148 33.5t123 86.5q-4 236 -69.5 344.5t-201.5 108.5q-119 0 -183 -79t-64 -226z" />
<glyph unicode=":" horiz-adv-x="507" d="M102 135q0 145 150 146q154 0 154 -146q0 -145 -154 -145q-150 0 -150 145zM102 973q0 145 150 145q154 0 154 -145q0 -146 -154 -146q-150 0 -150 146z" />
<glyph unicode=";" horiz-adv-x="538" d="M63 -297l91 571h264l-160 -591zM129 973q0 145 150 145q154 0 153 -145q1 -146 -153 -146q-150 0 -150 146z" />
<glyph unicode="&#x3c;" horiz-adv-x="1071" d="M72 659v177l880 385v-203l-624 -273l622 -270v-201z" />
<glyph unicode="=" horiz-adv-x="1064" d="M115 406v188h835v-188h-835zM115 852v186h835v-186h-835z" />
<glyph unicode="&#x3e;" horiz-adv-x="1071" d="M119 1018v203l880 -385v-177l-878 -385v201l620 270z" />
<glyph unicode="?" horiz-adv-x="880" d="M57 1485q74 23 153 36t165 13q96 0 178 -23.5t142.5 -72.5t94 -125t33.5 -183q0 -96 -30.5 -166.5t-84 -121.5t-123 -84t-145.5 -49l-10 -256v-33h-170v33l-22 376q68 14 128 36t106 53.5t73.5 77.5t27.5 112q0 61 -19 103t-52 68t-77 37t-95 11q-63 0 -133 -11t-123 -28 zM203 131q0 66 38 103.5t109 37.5q70 0 109 -37.5t39 -103.5q0 -68 -39 -104.5t-109 -36.5q-72 0 -109.5 36.5t-37.5 104.5z" />
<glyph unicode="@" horiz-adv-x="1691" d="M78 535q0 207 58.5 365.5t162.5 266t251.5 162.5t326.5 55q190 0 326 -53t225.5 -151.5t131.5 -238.5t42 -314q0 -121 -23 -217.5t-69 -165t-114.5 -105.5t-158.5 -37q-88 0 -144.5 41t-68.5 138h-8q-57 -88 -142.5 -127t-162.5 -39q-72 0 -125.5 28.5t-87 77.5 t-50 114.5t-16.5 139.5q0 117 34 214t96.5 169t152.5 112t200 40q129 0 312 -76l-74 -424q-6 -35 -12 -71t-6 -70q0 -53 23.5 -88t86.5 -35q92 0 140.5 101.5t48.5 279.5q0 137 -32 248.5t-99.5 189.5t-173 120t-252.5 42q-141 0 -258 -45t-200 -132t-128 -217.5t-45 -297.5 q0 -180 48 -306.5t128 -205t184.5 -114.5t218.5 -36q86 0 185.5 20.5t203.5 55.5l54 -144q-115 -37 -228 -60.5t-215 -23.5q-147 0 -283 44.5t-238.5 141.5t-164 251.5t-61.5 376.5zM598 475q0 -43 7 -82t24.5 -69.5t44 -48t67.5 -17.5q35 0 75 15.5t77 47t65.5 84 t40.5 130.5l52 309q-37 12 -71 17t-65 5q-72 0 -131 -29.5t-100 -82t-63.5 -124t-22.5 -155.5z" />
<glyph unicode="A" horiz-adv-x="1294" d="M4 0v14l447 1502h391l446 -1502v-14h-252l-123 406h-536l-121 -406h-252zM432 618h426l-133 453l-68 244h-22l-68 -244z" />
<glyph unicode="B" horiz-adv-x="1259" d="M141 10v1495q139 14 239.5 22.5t194.5 8.5q297 0 433.5 -101.5t136.5 -318.5q0 -135 -60.5 -221t-177.5 -115v-8q135 -25 209 -119t74 -245q0 -428 -602 -428q-106 0 -224 7t-223 23zM387 193q29 -6 89 -10.5t136 -4.5q309 2 310 246q0 131 -74 188.5t-246 57.5h-215 v-477zM387 858h207q156 0 219.5 54.5t63.5 187.5q0 123 -67 179t-212 56q-57 0 -107.5 -3t-103.5 -11v-463z" />
<glyph unicode="C" horiz-adv-x="1087" d="M80 756q0 403 160.5 590.5t490.5 187.5q66 0 138.5 -6t154.5 -23v-213q-72 12 -136.5 17.5t-119.5 5.5q-115 0 -194.5 -27.5t-129 -92.5t-72 -172.5t-22.5 -266.5q0 -156 22.5 -262.5t73 -171t128 -93t188.5 -28.5q55 0 130 7t132 19v-211q-53 -16 -130 -26t-155 -10 q-336 2 -497.5 190t-161.5 586z" />
<glyph unicode="D" horiz-adv-x="1351" d="M141 -4v1513q125 12 221.5 19.5t174.5 7.5q195 0 335 -45t229 -139.5t131 -242.5t42 -353q0 -209 -44 -356.5t-138.5 -243t-244 -139.5t-358.5 -44q-86 0 -172 5.5t-176 17.5zM401 201q53 -6 94.5 -9.5t82.5 -3.5q115 0 195.5 30t131.5 97.5t75 176t24 264.5t-23 263 t-74 175t-133 97.5t-199 29.5q-45 0 -88 -3t-86 -11v-1106z" />
<glyph unicode="E" horiz-adv-x="1155" d="M141 0v1516h924v-220h-662v-424h596v-219h-596v-434h680v-219h-942z" />
<glyph unicode="F" horiz-adv-x="1097" d="M141 0v1516h901v-220h-639v-448h582v-219h-582v-629h-262z" />
<glyph unicode="G" horiz-adv-x="1249" d="M78 756q0 399 173 588.5t535 189.5q78 0 169.5 -10.5t177.5 -30.5v-215q-100 20 -178 28.5t-144 8.5q-129 0 -217 -30t-142.5 -95.5t-78 -173t-23.5 -260.5q0 -154 21.5 -259.5t71 -171t128 -95t193.5 -29.5q31 0 67.5 2t75.5 6v561h240v-745q-238 -45 -406 -45 q-340 2 -501.5 191t-161.5 585z" />
<glyph unicode="H" horiz-adv-x="1431" d="M141 0v1516h262v-631h625v631h262v-1516h-262v666h-625v-666h-262z" />
<glyph unicode="I" horiz-adv-x="544" d="M141 0v1516h262v-1516h-262z" />
<glyph unicode="J" horiz-adv-x="544" d="M-16 -326q47 104 77.5 190.5t49 167.5t26.5 167t8 190v1127h265v-1145q0 -102 -13.5 -195.5t-44 -185.5t-80 -188.5t-118.5 -207.5z" />
<glyph unicode="K" horiz-adv-x="1292" d="M141 0v1516h262v-635h189l371 635h294l-403 -678l-90 -56v-12l94 -53l440 -717h-297l-403 662h-195v-662h-262z" />
<glyph unicode="L" horiz-adv-x="976" d="M141 0v1516h262v-1299h549v-217h-811z" />
<glyph unicode="M" horiz-adv-x="1806" d="M141 0v1516h367l315 -869l72 -260h14l72 260l315 869h369v-1516h-246v1178h-12l-96 -297l-295 -811h-230l-294 811l-99 297h-12v-1178h-240z" />
<glyph unicode="N" horiz-adv-x="1458" d="M141 0v1516h224l606 -910l94 -168h16v1078h236v-1516h-223l-605 907l-98 172h-16v-1079h-234z" />
<glyph unicode="O" horiz-adv-x="1406" d="M702 1536q625 0 625 -780q0 -776 -625 -776q-622 0 -622 774q0 782 622 782zM348 756q0 -150 19.5 -255.5t62.5 -173t110.5 -98t161.5 -30.5t162 30.5t111 97t63.5 172t20.5 257.5q0 301 -84 432t-273 131q-94 0 -161.5 -32t-110.5 -99.5t-62.5 -174t-19.5 -257.5z" />
<glyph unicode="P" horiz-adv-x="1226" d="M141 0v1505q98 16 192.5 23.5t184.5 7.5q172 0 297 -30.5t206 -95t119 -166t38 -240.5q0 -276 -157 -404.5t-497 -128.5h-60.5t-60.5 2v-473h-262zM403 694q33 -4 77 -7t81 -3q94 0 160.5 17.5t107.5 55.5t60.5 99.5t19.5 147.5q0 172 -77.5 244.5t-266.5 72.5 q-39 0 -83 -4t-79 -8v-615z" />
<glyph unicode="Q" horiz-adv-x="1400" d="M76 756q0 780 622 780q627 0 627 -780q0 -324 -132 -500t-394 -203v-20q68 -18 128 -32.5t123.5 -25t132 -17.5t152.5 -13l-114 -211q-324 70 -543 151.5t-352 197.5t-191.5 278.5t-58.5 394.5zM342 756q0 -152 19.5 -258.5t62.5 -174t110.5 -98t163.5 -30.5 q190 0 275.5 130t85.5 431q0 152 -20.5 259t-63.5 174.5t-111.5 99.5t-165.5 32q-96 0 -163.5 -32t-110.5 -99.5t-62.5 -175t-19.5 -258.5z" />
<glyph unicode="R" horiz-adv-x="1257" d="M141 0v1505q184 31 377 31q346 0 503 -120t157 -386q0 -340 -279 -446l320 -584h-281l-270 535q-29 -2 -59.5 -3.5t-65.5 -1.5h-30.5t-38 1t-39 2.5t-32.5 3.5v-537h-262zM403 750q33 -4 75 -7.5t83 -3.5q190 0 269 66.5t79 224.5t-78.5 224.5t-265.5 66.5q-33 0 -77 -4 t-85 -8v-559z" />
<glyph unicode="S" horiz-adv-x="1091" d="M70 47l6 221q45 -16 98 -29.5t108.5 -23.5t108.5 -15t98 -5q279 0 279 211q0 51 -20.5 88.5t-57.5 65.5t-90 50.5t-121 44.5q-92 27 -164.5 63t-123 88t-77 126t-26.5 178q0 199 135 313.5t371 114.5q86 0 175 -11t200 -40l-4 -215q-92 25 -185.5 38t-163.5 13 q-125 0 -192.5 -55.5t-67.5 -155.5q0 -49 18.5 -85t56.5 -64.5t93.5 -53t128.5 -49.5q88 -31 159 -66.5t120 -87t75.5 -121t26.5 -167.5q0 -211 -133 -327t-375 -116q-104 0 -225 18.5t-231 53.5z" />
<glyph unicode="T" horiz-adv-x="1120" d="M33 1292v224h1054v-224h-397v-1292h-264v1292h-393z" />
<glyph unicode="U" horiz-adv-x="1419" d="M129 598v918h262v-910q0 -215 76 -310t244 -95t242.5 94t74.5 311v910h264v-918q0 -160 -31.5 -275.5t-101 -192.5t-180 -113.5t-268.5 -36.5q-160 0 -270.5 36.5t-179 113.5t-100.5 192.5t-32 275.5z" />
<glyph unicode="V" horiz-adv-x="1296" d="M2 1516h266l299 -975l72 -297h20l74 297l297 975h262l-465 -1516h-358z" />
<glyph unicode="W" horiz-adv-x="1957" d="M20 1516h287l199 -971l41 -238h18l51 238l236 971h266l225 -971l48 -238h20l43 238l207 971h283l-375 -1516h-326l-215 885l-39 270h-16l-41 -270l-223 -885h-326z" />
<glyph unicode="X" horiz-adv-x="1294" d="M-8 0l487 778l-456 738h299l305 -517l22 -49h10l23 49l303 517h287l-461 -732l494 -784h-295l-344 561l-21 45h-10l-21 -45l-333 -561h-289z" />
<glyph unicode="Y" horiz-adv-x="1280" d="M-10 1516h293l305 -637l43 -123h18l45 123l305 637h289l-516 -1004v-512h-262v506z" />
<glyph unicode="Z" horiz-adv-x="1122" d="M57 0v219l678 1061v14h-653v222h958v-218l-678 -1062v-17h705v-219h-1010z" />
<glyph unicode="[" horiz-adv-x="671" d="M145 -328v2106h476v-174h-271v-1758h271v-174h-476z" />
<glyph unicode="\" horiz-adv-x="710" d="M53 1516h219l385 -1762h-219z" />
<glyph unicode="]" horiz-adv-x="669" d="M49 -154h270v1758h-270v174h475v-2106h-475v174z" />
<glyph unicode="^" horiz-adv-x="882" d="M70 985l260 631h223l260 -631h-184l-183 463h-8l-184 -463h-184z" />
<glyph unicode="_" horiz-adv-x="1128" d="M82 -121h965v-194h-965v194z" />
<glyph unicode="`" horiz-adv-x="534" d="M41 1649h268l140 -377l-185 -21z" />
<glyph unicode="a" d="M55 299q0 160 97.5 244t302.5 100l215 14v52q0 63 -9.5 105t-34 67.5t-66.5 36t-105 10.5q-29 0 -67 -2t-79 -7.5t-83 -11.5t-74 -12l-19 188q96 18 188.5 28.5t174.5 10.5q223 0 327.5 -86t104.5 -270v-766h-213l-23 135h-16q-68 -63 -152 -104t-176 -41q-137 0 -215 83 t-78 226zM313 324q1 -144 136 -144q53 0 113.5 31t107.5 61v232l-152 -15q-111 -10 -158 -49t-47 -116z" />
<glyph unicode="b" horiz-adv-x="1136" d="M117 45v1610h258v-662q53 63 129 97t170 34q389 0 389 -542q0 -135 -31 -245t-95.5 -187.5t-166 -122.5t-240.5 -47q-88 0 -188 15t-225 50zM375 180q35 -10 77 -15t83 -5q72 0 122 20.5t82.5 67.5t47 122.5t14.5 184.5q0 209 -49.5 293t-161.5 84q-94 0 -154.5 -64.5 t-60.5 -214.5v-473z" />
<glyph unicode="c" horiz-adv-x="892" d="M72 553q0 291 128 431t386 140q121 0 235 -28v-207q-57 12 -109.5 17t-99.5 5q-147 0 -212.5 -83t-65.5 -273t64.5 -276t211.5 -86q53 0 103.5 5t107.5 19v-205q-47 -14 -110.5 -22t-124.5 -8q-258 0 -386 139t-128 432z" />
<glyph unicode="d" horiz-adv-x="1138" d="M72 530q0 295 136 444.5t392 149.5q39 0 77 -3t85 -9v543h256v-1655h-232l-18 119h-8q-102 -137 -295 -137q-199 0 -296 134t-97 414zM336 555q0 -207 49 -295t162 -88q94 0 153.5 65.5t61.5 217.5v467q-41 10 -82 16t-86 6q-137 0 -197.5 -87t-60.5 -302z" />
<glyph unicode="e" d="M72 539q0 289 123.5 437t365.5 148q408 0 408 -499q0 -53 -3 -88t-10 -70h-624q8 -158 67.5 -222.5t184.5 -64.5q70 0 157.5 14.5t176.5 43.5l10 -193q-76 -29 -173.5 -46t-189.5 -17q-242 0 -367.5 141t-125.5 416zM332 631h405q-4 162 -47 231.5t-137 69.5 q-104 0 -157.5 -72t-63.5 -229z" />
<glyph unicode="f" horiz-adv-x="731" d="M29 889v217h182v61q0 137 26.5 230.5t88 151t163 85t252.5 33.5l13 -197q-86 -6 -141.5 -20t-87 -46t-45 -83t-13.5 -131v-84h240v-217h-240v-889h-258v889h-180z" />
<glyph unicode="g" horiz-adv-x="1136" d="M74 535q0 293 137 441t389 148q94 0 191.5 -14t228.5 -49v-926q0 -154 -36 -265.5t-103.5 -182t-164.5 -104.5t-220 -34q-86 0 -175.5 12.5t-166.5 35.5l18 194q78 -23 150.5 -34t142.5 -11q152 0 228.5 77t78.5 265v64h-10q-102 -135 -293 -136q-199 0 -297 127t-98 392 zM336 559q0 -195 49 -277.5t162 -82.5q96 0 155.5 63.5t59.5 204.5v455q-41 10 -82 16t-86 6q-135 0 -196.5 -87t-61.5 -298z" />
<glyph unicode="h" horiz-adv-x="1132" d="M119 0v1655h258v-664q61 37 112.5 62.5t96.5 42t87 23.5t83 7q129 0 195.5 -74.5t66.5 -222.5v-829h-256v745q0 86 -31 124t-94 38q-109 0 -260 -88v-819h-258z" />
<glyph unicode="i" horiz-adv-x="497" d="M102 1444q0 76 35 110.5t113 34.5q149 0 149 -143q0 -76 -35.5 -112t-113.5 -36t-113 35t-35 111zM121 0v1106h256v-1106h-256z" />
<glyph unicode="j" horiz-adv-x="495" d="M10 -397q55 135 84 293.5t29 353.5v65.5v152.5t-1 196.5t-1 198.5v161v82h258v-942q-2 -78 -16.5 -159t-39 -161t-58.5 -154.5t-77 -140.5zM100 1444q0 76 35 110.5t113 34.5t113.5 -35.5t35.5 -109.5t-35.5 -110t-113.5 -36t-113 35t-35 111z" />
<glyph unicode="k" horiz-adv-x="1069" d="M119 0v1655h258v-993h119l272 444h281l-340 -516l-43 -19v-6l45 -18l374 -547h-282l-309 477h-117v-477h-258z" />
<glyph unicode="l" horiz-adv-x="501" d="M123 0v1655h258v-1655h-258z" />
<glyph unicode="m" horiz-adv-x="1712" d="M119 0v1106h213l14 -121h10q115 76 199 108.5t168 32.5q174 0 235 -143h11q111 78 194.5 110.5t169.5 32.5q129 0 196.5 -74.5t67.5 -222.5v-829h-254v743q0 86 -30.5 124t-95.5 38q-47 0 -106.5 -21.5t-125.5 -60.5v-823h-254v743q0 86 -30.5 124t-96.5 38 q-49 0 -108.5 -21.5t-122.5 -62.5v-821h-254z" />
<glyph unicode="n" horiz-adv-x="1132" d="M119 0v1106h219l14 -121h10q131 76 219.5 108.5t174.5 32.5q129 0 195.5 -74.5t66.5 -222.5v-829h-256v745q0 88 -32 125t-93 37q-55 0 -121.5 -23.5t-138.5 -64.5v-819h-258z" />
<glyph unicode="o" horiz-adv-x="1126" d="M72 553q0 283 125 428t366 145q242 0 367 -145t125 -428t-125 -428t-367 -145t-366.5 146t-124.5 427zM332 553q0 -102 12 -173t40 -115t72 -63.5t107 -19.5t108.5 19.5t73 62.5t40 114t12.5 175t-13.5 175t-41 114t-71.5 62.5t-108 19.5q-63 0 -107 -19.5t-72 -62.5 t-40 -114t-12 -175z" />
<glyph unicode="p" horiz-adv-x="1138" d="M119 -451v1557h231l17 -119h10q51 66 127 101.5t172 35.5q389 0 389 -542q0 -137 -32 -249t-97.5 -189.5t-164.5 -120.5t-234 -43q-39 0 -79 4t-81 10v-445h-258zM377 182q37 -10 79 -16t85 -6q70 0 120 20.5t81.5 67.5t46 122.5t14.5 184.5q0 104 -11.5 177t-37 118 t-65.5 64.5t-97 19.5q-96 0 -155.5 -66.5t-59.5 -218.5v-467z" />
<glyph unicode="q" horiz-adv-x="1136" d="M72 530q0 297 136 445.5t402 148.5q102 0 207 -12t201 -35v-1528h-254v568q-104 -135 -299 -135q-393 0 -393 548zM332 563q0 -215 49 -304t166 -89q98 0 155.5 69.5t57.5 217.5v467q-84 20 -166 20q-72 0 -122 -20.5t-81 -65.5t-45 -117.5t-14 -177.5z" />
<glyph unicode="r" horiz-adv-x="765" d="M119 0v1106h219l14 -152h13q25 20 60.5 45t78.5 48.5t89 44t89 32.5h61v-239h-98q-74 -10 -148.5 -40t-119.5 -65v-780h-258z" />
<glyph unicode="s" horiz-adv-x="897" d="M76 29v192q82 -25 169 -39t165 -14q178 0 178 137q0 63 -40 97t-126 51q-53 8 -112.5 22t-109.5 48t-83 96.5t-33 171.5q0 160 101.5 248.5t285.5 88.5q68 0 142.5 -9t172.5 -29l-2 -197q-98 23 -158.5 32t-113.5 9q-90 0 -138 -35t-48 -100q0 -74 49 -101.5t129 -44.5 q66 -12 126 -32.5t106 -56.5t73 -94t27 -148q0 -162 -109.5 -253.5t-308.5 -91.5q-74 0 -159 13.5t-183 38.5z" />
<glyph unicode="t" horiz-adv-x="774" d="M27 887v219h202l37 299l205 27v-326h262v-219h-262v-527q0 -94 37 -135t113 -41q23 0 53.5 3t58.5 14v-195q-41 -10 -88 -15t-94 -5q-336 0 -336 315v586h-188z" />
<glyph unicode="u" horiz-adv-x="1130" d="M113 276v830h258v-752q0 -86 28.5 -121.5t98.5 -35.5q59 0 120.5 22.5t135.5 69.5v817h258v-1106h-217l-17 121h-8q-63 -39 -112.5 -65.5t-92.5 -44t-84 -24.5t-86 -7q-137 0 -209.5 75.5t-72.5 220.5z" />
<glyph unicode="v" horiz-adv-x="1083" d="M18 1085v21h269l213 -727l35 -158h18l35 158l213 727h266v-21l-369 -1085h-313z" />
<glyph unicode="w" horiz-adv-x="1531" d="M37 1098v8h242l135 -694l24 -146h19l28 146l160 694h244l160 -694l30 -146h19l24 146l133 694h242v-8l-252 -1098h-291l-159 674l-19 121h-18l-21 -121l-157 -674h-289z" />
<glyph unicode="x" horiz-adv-x="1079" d="M14 0v23l346 550l-329 517v16h272l191 -322l43 -79h14l41 79l184 322h275v-16l-332 -533l346 -534v-23h-270l-207 354l-43 84h-15l-43 -84l-200 -354h-273z" />
<glyph unicode="y" horiz-adv-x="1095" d="M14 1083v23h267l223 -686l35 -154h16l37 154l225 686h264v-23l-553 -1534l-252 48v16l140 393z" />
<glyph unicode="z" horiz-adv-x="933" d="M63 0v172l486 719v12h-469v203h772v-172l-479 -717v-14h499v-203h-809z" />
<glyph unicode="{" horiz-adv-x="690" d="M45 633v194q76 0 109.5 51.5t33.5 149.5v508q0 133 51.5 187.5t174.5 54.5q20 0 54 -1t67.5 -3t62.5 -3.5t37 -3.5v-163h-133q-57 0 -80 -22.5t-23 -76.5v-530q0 -94 -41 -160.5t-108 -85.5q68 -16 108.5 -82.5t40.5 -159.5v-534q0 -53 22.5 -75.5t80.5 -22.5h133v-164 q-8 -2 -37 -4t-62.5 -3t-67.5 -2t-54 -1q-123 0 -174.5 54t-51.5 189v512q0 98 -33.5 147.5t-109.5 49.5z" />
<glyph unicode="|" horiz-adv-x="534" d="M145 -451v2106h244v-2106h-244z" />
<glyph unicode="}" horiz-adv-x="690" d="M55 -145h135q57 0 80 22.5t23 75.5v534q0 92 40 159t109 83q-70 18 -109.5 85t-39.5 161v530q0 53 -22.5 76t-80.5 23h-135v163q8 2 37 3.5t63.5 3.5t68.5 3t52 1q125 0 175.5 -54.5t50.5 -187.5v-508q0 -98 33.5 -149.5t109.5 -51.5v-194q-76 0 -109.5 -49t-33.5 -148 v-512q0 -135 -50.5 -189t-175.5 -54q-18 0 -52 1t-68.5 2t-63.5 3t-37 4v164z" />
<glyph unicode="~" horiz-adv-x="1210" d="M88 563q55 72 98 119t81 74.5t74 39t77 11.5q57 0 103 -23.5t88 -52.5t82 -52.5t85 -23.5q53 0 104.5 39t88.5 109l153 -90q-25 -43 -57.5 -89t-73.5 -83t-89 -61.5t-103 -24.5q-59 0 -106.5 23.5t-89.5 53t-81 53t-80 23.5q-53 0 -100 -35.5t-104 -113.5z" />
<glyph unicode="&#xa1;" horiz-adv-x="495" d="M104 971q0 68 38 104.5t108 36.5q72 0 110.5 -37t38.5 -104q0 -66 -38.5 -104t-110.5 -38q-70 0 -108 38t-38 104zM115 -389l53 1022v24h162v-24l51 -1022v-21h-266v21z" />
<glyph unicode="&#xa2;" horiz-adv-x="921" d="M72 553q0 510 409 565v234h168v-230q43 -4 87 -10t85 -16v-207q-57 12 -109.5 17t-99.5 5q-147 0 -212.5 -83t-65.5 -273t64.5 -276t211.5 -86q53 0 103.5 5t107.5 19v-205q-35 -10 -80 -17t-92 -11v-230h-168v234q-205 27 -307 165t-102 400z" />
<glyph unicode="&#xa3;" horiz-adv-x="1216" d="M80 0v227h250v430h-250v203h250v219q0 231 107.5 341t342.5 110q78 0 165 -12.5t198 -40.5l-15 -211q-78 23 -160.5 34t-144.5 11q-127 0 -179 -53.5t-52 -182.5v-215h371v-203h-371v-434h522v-223h-1034z" />
<glyph unicode="&#xa4;" horiz-adv-x="1193" d="M86 352l111 113l102 74q-57 92 -57 219t57 219l-102 76l-111 110l104 105l113 -111l70 -98q45 35 102 53t123 18q129 0 219 -73l74 100l110 111l105 -105l-111 -110l-106 -78q57 -92 57 -217q0 -66 -14 -120t-41 -99l104 -74l111 -113l-105 -104l-110 110l-72 99 q-92 -74 -223 -74q-135 0 -225 72l-68 -97l-113 -110zM408 758q0 -111 51 -170.5t137 -59.5t136 59.5t50 170.5t-50 169t-136 58t-137 -58t-51 -169z" />
<glyph unicode="&#xa5;" horiz-adv-x="1386" d="M45 1516h293l305 -637l43 -123h19l45 123l305 637h288l-428 -832h259v-178h-347v-162h347v-178h-347v-166h-262v166h-362v178h362v162h-362v178h270z" />
<glyph unicode="&#xa6;" horiz-adv-x="526" d="M141 418h244v-869h-244v869zM141 786v869h244v-869h-244z" />
<glyph unicode="&#xa7;" horiz-adv-x="948" d="M98 29v190q80 -25 168 -38t166 -13q178 0 178 137q0 63 -41 97t-125 51q-53 8 -113.5 22t-110.5 48t-83 96.5t-33 171.5q0 123 68 208q-31 35 -49.5 86.5t-18.5 126.5q0 160 102.5 249t287.5 89q68 0 142.5 -9t172.5 -30l-2 -194q-98 23 -158.5 31t-113.5 8 q-92 0 -139.5 -35t-47.5 -100q0 -74 49 -102.5t129 -43.5q66 -12 125.5 -32.5t105.5 -57.5t72.5 -95.5t26.5 -148.5q0 -125 -70 -213q35 -35 52.5 -85t17.5 -121q0 -162 -108.5 -253.5t-307.5 -91.5q-74 0 -158.5 13.5t-183.5 38.5zM340 803q0 -39 10 -64.5t28.5 -43 t44.5 -29t56 -19.5q27 -8 55.5 -17.5t53.5 -19.5q31 47 30 109q0 68 -31.5 103.5t-94.5 54.5q-23 8 -51.5 15t-51.5 17q-49 -43 -49 -106z" />
<glyph unicode="&#xa8;" horiz-adv-x="948" d="M100 1413q0 68 33 98.5t103 30.5q135 0 135 -129q0 -133 -135 -133t-136 133zM557 1413q0 68 33 98.5t102 30.5q135 0 135 -129q0 -133 -135 -133t-135 133z" />
<glyph unicode="&#xa9;" horiz-adv-x="1677" d="M78 758q0 174 54 317.5t154.5 246.5t241 159.5t312.5 56.5t311 -56.5t238.5 -159.5t153.5 -246.5t54 -317.5t-54 -317.5t-153.5 -247t-238.5 -160t-311 -56.5t-312.5 56.5t-241 160t-154.5 247t-54 317.5zM229 758q0 -143 42 -261t122 -201t193 -129t254 -46t253.5 46 t191.5 129t121 200.5t42 261.5q0 143 -42 261t-121 201t-191.5 129t-253.5 46t-254 -46t-193 -129t-122 -201t-42 -261zM487 752q0 211 99.5 316.5t283.5 105.5q47 0 94.5 -5.5t86.5 -15.5v-147q-47 8 -87 13t-75 5q-117 0 -171 -65.5t-54 -204.5q0 -141 54 -205t169 -64 q31 0 74 4.5t92 14.5v-148q-39 -10 -87.5 -16t-95.5 -6q-184 0 -283.5 104.5t-99.5 313.5z" />
<glyph unicode="&#xaa;" horiz-adv-x="851" d="M68 942q0 109 73.5 170.5t214.5 71.5l179 12v29q0 45 -6.5 74.5t-23 45t-46 21.5t-74.5 6t-105.5 -4t-132.5 -16l-14 147q80 14 150.5 21.5t130.5 7.5q176 0 252.5 -60.5t76.5 -193.5v-553h-176l-12 96h-8q-121 -104 -252 -104q-104 0 -165.5 62.5t-61.5 166.5zM276 958 q1 -98 97 -98q63 0 162 60v155l-95 -8q-94 -8 -129 -31.5t-35 -77.5z" />
<glyph unicode="&#xab;" horiz-adv-x="1163" d="M61 549v8l250 487h262l-249 -487v-8l249 -488h-262zM582 549v8l249 487h263l-250 -487v-8l250 -488h-263z" />
<glyph unicode="&#xac;" horiz-adv-x="1564" d="M96 676v211h1348v-670h-252v459h-1096z" />
<glyph unicode="&#xad;" horiz-adv-x="837" d="M109 475v197h620v-197h-620z" />
<glyph unicode="&#xae;" horiz-adv-x="1421" d="M84 915q0 137 46 253t129 199t197.5 129t254.5 46q139 0 254.5 -46t198.5 -129t129 -198.5t46 -253.5q0 -137 -46 -252.5t-129 -198.5t-198.5 -129t-254.5 -46t-254 46t-198 129t-129 198.5t-46 252.5zM211 915q0 -113 36 -206t100.5 -159.5t156.5 -103t207 -36.5 q113 0 206 36.5t158.5 103t101 160t35.5 205.5q0 113 -35.5 206t-101 160t-159 103.5t-205.5 36.5q-115 0 -207 -36.5t-156.5 -103.5t-100.5 -160t-36 -206zM485 596v661q53 6 102.5 10.5t94.5 4.5q152 0 223.5 -52.5t71.5 -162.5q0 -152 -133 -193l-2 -6l153 -262h-129 l-133 235h-125v-235h-123zM608 930h78q88 0 127 29.5t39 95.5q0 59 -36 90t-122 31q-12 0 -40.5 -1t-45.5 -4v-241z" />
<glyph unicode="&#xaf;" horiz-adv-x="872" d="M102 1305v170h650v-170h-650z" />
<glyph unicode="&#xb0;" horiz-adv-x="866" d="M66 1147q0 84 26.5 154.5t75.5 123t116.5 81t149.5 28.5q80 0 147.5 -28.5t117 -81t76 -123t26.5 -154.5t-26.5 -154.5t-76 -122t-117 -80t-147.5 -28.5q-82 0 -149.5 28.5t-116.5 80t-75.5 122t-26.5 154.5zM219 1147q0 -109 55.5 -174.5t159.5 -65.5t157.5 65.5 t53.5 174.5t-53 175.5t-158 66.5q-104 0 -159.5 -67t-55.5 -175z" />
<glyph unicode="&#xb1;" horiz-adv-x="1073" d="M113 141v183h848v-183h-848zM113 782v183h331v335h183v-335h331v-183h-331v-325h-183v325h-331z" />
<glyph unicode="&#xb2;" horiz-adv-x="825" d="M61 614v179q0 68 16.5 124t51.5 106t90 95t133 92q102 59 140 107.5t38 105.5q0 133 -184 133q-49 0 -107.5 -9t-127.5 -25l-23 182q90 23 167 33t142 10q358 0 359 -303q0 -115 -57.5 -198t-180.5 -156q-111 -72 -159 -129.5t-48 -116.5v-43h441v-187h-691z" />
<glyph unicode="&#xb3;" horiz-adv-x="780" d="M72 1722q53 12 114.5 19.5t118.5 7.5q381 0 381 -295q0 -96 -43 -162.5t-125 -97.5q96 -31 146.5 -100.5t50.5 -173.5q0 -154 -105.5 -237t-300.5 -83q-127 0 -233 23v190h16q35 -10 86 -15t94 -5q117 0 169.5 37.5t52.5 111.5q0 82 -55.5 120t-184.5 38h-70v168h70 q109 0 159 36.5t50 110.5q0 72 -43 108t-137 36q-74 0 -187 -23h-18z" />
<glyph unicode="&#xb4;" horiz-adv-x="518" d="M70 1266l139 381h266l-221 -398z" />
<glyph unicode="&#xb5;" horiz-adv-x="1191" d="M143 -451v1557h256v-768q0 -76 35 -110.5t98 -34.5q55 0 116 21.5t136 66.5v825h258v-1106h-217l-16 121h-8q-63 -39 -112.5 -65.5t-92.5 -44t-83 -24.5t-85 -7q-20 0 -29 2v-433h-256z" />
<glyph unicode="&#xb6;" horiz-adv-x="1140" d="M63 1034q0 137 30 231.5t85 152t133 83t174 25.5q47 0 99.5 -5t105.5 -16v-1505h-129v545q-23 -2 -41 -2h-39q-96 0 -173 25.5t-131 83t-84 151.5t-30 231zM807 0v1505h166v-1505h-166z" />
<glyph unicode="&#xb7;" horiz-adv-x="487" d="M92 758q0 78 36 112.5t114 34.5t113.5 -34.5t35.5 -112.5t-35.5 -112t-113.5 -34t-114 34t-36 112z" />
<glyph unicode="&#xb8;" horiz-adv-x="567" d="M57 -266q35 -10 71 -15.5t60 -5.5q104 0 105 94q0 98 -115 254h168q68 -92 95.5 -156.5t27.5 -133.5q0 -104 -61.5 -163t-178.5 -59q-37 0 -81 6.5t-91 18.5v160z" />
<glyph unicode="&#xb9;" horiz-adv-x="647" d="M25 1503l4 33l325 197h164v-1119h-223v875l-205 -90h-29z" />
<glyph unicode="&#xba;" horiz-adv-x="897" d="M72 1118q0 209 98 310.5t279 101.5q180 0 278 -101.5t98 -310.5t-98 -310t-278 -101t-278.5 101t-98.5 310zM279 1118q0 -76 9 -125t29.5 -78.5t53.5 -41t78 -11.5t76.5 11.5t52 41t30.5 78.5t10 125t-10 126t-30.5 79t-52 41t-76.5 12t-78 -12t-53.5 -41t-29.5 -79 t-9 -126z" />
<glyph unicode="&#xbb;" horiz-adv-x="1163" d="M70 61l249 488v8l-249 487h260l252 -487v-8l-252 -488h-260zM592 61l250 488v8l-250 487h260l252 -487v-8l-252 -488h-260z" />
<glyph unicode="&#xbc;" horiz-adv-x="1986" d="M47 1298l4 33l326 197h164v-1118h-224v874l-204 -90h-29zM512 0l590 1516h217l-590 -1516h-217zM1102 375l362 739l23 10l186 -18l15 -31l-361 -665h264l62 333h145v-333h131v-170h-131v-240h-225v240h-438z" />
<glyph unicode="&#xbd;" horiz-adv-x="2029" d="M47 1298l4 33l326 197h164v-1118h-224v874l-204 -90h-29zM512 0l590 1516h217l-590 -1516h-217zM1247 0v178q0 66 15.5 121t50.5 104.5t90 96.5t135 96q51 33 86 58.5t55.5 50t28.5 49t8 53.5q0 135 -182 135q-55 0 -119.5 -9t-118.5 -26l-22 183q186 43 309 43 q358 0 359 -304q0 -111 -54.5 -191.5t-183.5 -162.5q-113 -76 -160 -131t-47 -115v-43h440v-186h-690z" />
<glyph unicode="&#xbe;" horiz-adv-x="2054" d="M94 1518q53 12 114.5 19t119.5 7q381 0 381 -295q0 -96 -43 -162.5t-125 -97.5q96 -31 146 -100.5t50 -173.5q0 -154 -105 -237t-300 -83q-127 0 -234 23v190h17q35 -10 86 -15t94 -5q117 0 169 38t52 111q0 82 -55 120t-185 38h-69v168h69q109 0 159 37t50 110 q0 72 -43 108t-137 36q-74 0 -186 -23h-19zM610 0l590 1516h217l-590 -1516h-217zM1176 375l362 739l23 10l186 -18l14 -31l-360 -665h264l61 333h146v-333h131v-170h-131v-240h-225v240h-439z" />
<glyph unicode="&#xbf;" horiz-adv-x="868" d="M53 -20q0 94 31 165.5t84 122.5t121.5 84t146.5 49l10 256v33h170v-33l23 -376q-68 -16 -128 -37t-106.5 -52.5t-74 -77.5t-27.5 -112q0 -61 19.5 -103t52.5 -68t77 -37t95 -11q63 0 133 11t123 28l16 -197q-74 -23 -152.5 -36t-164.5 -13q-96 0 -179 23.5t-142.5 72.5 t-93.5 125t-34 183zM379 979q0 68 38.5 104.5t108.5 36.5q72 0 110 -36.5t38 -104.5q0 -66 -38 -103.5t-110 -37.5q-70 0 -108.5 37.5t-38.5 103.5z" />
<glyph unicode="&#xc0;" horiz-adv-x="1294" d="M4 0v14l447 1502h391l446 -1502v-14h-252l-123 406h-536l-121 -406h-252zM324 1962h266l143 -315l-190 -25zM432 618h426l-133 453l-68 244h-22l-68 -244z" />
<glyph unicode="&#xc1;" horiz-adv-x="1294" d="M4 0v14l447 1502h391l446 -1502v-14h-252l-123 406h-536l-121 -406h-252zM432 618h426l-133 453l-68 244h-22l-68 -244zM543 1636l143 326h266l-219 -340z" />
<glyph unicode="&#xc2;" horiz-adv-x="1294" d="M4 0v14l447 1502h391l446 -1502v-14h-252l-123 406h-536l-121 -406h-252zM319 1642v187l330 149l330 -149v-187l-330 150zM432 618h426l-133 453l-68 244h-22l-68 -244z" />
<glyph unicode="&#xc3;" horiz-adv-x="1294" d="M4 0v14l447 1502h391l446 -1502v-14h-252l-123 406h-536l-121 -406h-252zM272 1735q53 96 124 147t139 51q43 0 82.5 -13t77.5 -28.5t77 -29t80 -13.5q76 0 154 80l51 -49q-51 -98 -122 -149.5t-140 -51.5q-43 0 -82 12.5t-78 28t-77 27.5t-79 12t-80 -17.5t-80 -58.5z M432 618h426l-133 453l-68 244h-22l-68 -244z" />
<glyph unicode="&#xc4;" horiz-adv-x="1294" d="M4 0v14l447 1502h391l446 -1502v-14h-252l-123 406h-536l-121 -406h-252zM254 1798q0 78 36 112t111 34q78 0 115 -34t37 -112t-37 -111.5t-115 -33.5q-147 0 -147 145zM432 618h426l-133 453l-68 244h-22l-68 -244zM743 1798q0 78 36 112t114 34q76 0 112.5 -34 t36.5 -112t-36.5 -111.5t-112.5 -33.5q-150 0 -150 145z" />
<glyph unicode="&#xc5;" horiz-adv-x="1294" d="M4 0v14l447 1502h391l446 -1502v-14h-252l-123 406h-536l-121 -406h-252zM410 1765q0 49 17 90t48 72t74 48.5t96 17.5q51 0 94 -17.5t74 -48.5t48.5 -71.5t17.5 -90.5q0 -96 -65 -159.5t-169 -63.5t-169.5 63.5t-65.5 159.5zM432 618h426l-133 453l-68 244h-22l-68 -244 zM524 1765q0 -57 27.5 -87.5t93.5 -30.5q121 0 121 118q0 123 -121 123q-66 0 -93.5 -31.5t-27.5 -91.5z" />
<glyph unicode="&#xc6;" horiz-adv-x="1730" d="M0 0v14l514 1502h1118v-220h-583l24 -424h520v-219h-508l25 -434h543v-219h-799l-16 401h-437l-135 -401h-266zM477 623h350l-26 690h-88z" />
<glyph unicode="&#xc7;" horiz-adv-x="1087" d="M80 756q0 403 160.5 590.5t490.5 187.5q66 0 138.5 -6t154.5 -23v-213q-72 12 -136.5 17.5t-119.5 5.5q-115 0 -194.5 -27.5t-129 -92.5t-72 -172.5t-22.5 -266.5q0 -156 22.5 -262.5t73 -171t128 -93t188.5 -28.5q55 0 130 7t132 19v-211q-51 -16 -120.5 -25t-143.5 -11 q37 -59 52 -107.5t15 -101.5q0 -104 -61 -163t-178 -59q-37 0 -81 6.5t-91 18.5v160q35 -10 70.5 -15.5t60.5 -5.5q104 0 104 94q0 76 -67 185q-256 41 -380 227.5t-124 536.5z" />
<glyph unicode="&#xc8;" horiz-adv-x="1155" d="M141 0v1516h924v-220h-662v-424h596v-219h-596v-434h680v-219h-942zM297 1962h266l144 -315l-191 -25z" />
<glyph unicode="&#xc9;" horiz-adv-x="1155" d="M141 0v1516h924v-220h-662v-424h596v-219h-596v-434h680v-219h-942zM498 1636l143 326h266l-219 -340z" />
<glyph unicode="&#xca;" horiz-adv-x="1155" d="M141 0v1516h924v-220h-662v-424h596v-219h-596v-434h680v-219h-942zM283 1642v187l329 149l330 -149v-187l-330 150z" />
<glyph unicode="&#xcb;" horiz-adv-x="1155" d="M141 0v1516h924v-220h-662v-424h596v-219h-596v-434h680v-219h-942zM215 1798q0 78 36 112t111 34q78 0 115 -34t37 -112t-37 -111.5t-115 -33.5q-147 0 -147 145zM705 1798q0 78 35.5 112t113.5 34q76 0 113 -34t37 -112t-37 -111.5t-113 -33.5q-150 0 -149 145z" />
<glyph unicode="&#xcc;" horiz-adv-x="544" d="M-37 1962h266l144 -315l-191 -25zM141 0v1516h262v-1516h-262z" />
<glyph unicode="&#xcd;" horiz-adv-x="544" d="M141 0v1516h262v-1516h-262zM170 1636l143 326h267l-220 -340z" />
<glyph unicode="&#xce;" horiz-adv-x="544" d="M-53 1642v187l329 149l330 -149v-187l-330 150zM141 0v1516h262v-1516h-262z" />
<glyph unicode="&#xcf;" horiz-adv-x="544" d="M-119 1798q0 78 36 112t112 34q78 0 114.5 -34t36.5 -112t-36.5 -111.5t-114.5 -33.5q-147 0 -148 145zM141 0v1516h262v-1516h-262zM371 1798q0 78 35.5 112t113.5 34q76 0 113 -34t37 -112t-37 -111.5t-113 -33.5q-150 0 -149 145z" />
<glyph unicode="&#xd0;" horiz-adv-x="1390" d="M0 659v203h178v647q125 12 221.5 19.5t173.5 7.5q195 0 335.5 -45t229.5 -139.5t131 -242.5t42 -353q0 -209 -44 -356.5t-138.5 -243t-244 -139.5t-358.5 -44q-86 0 -172 5.5t-176 17.5v663h-178zM438 201q53 -6 94 -9.5t82 -3.5q115 0 196 30t132 97.5t74.5 176 t23.5 264.5t-22.5 263t-73.5 175t-133 97.5t-199 29.5q-45 0 -88 -3t-86 -11v-445h254v-203h-254v-458z" />
<glyph unicode="&#xd1;" horiz-adv-x="1458" d="M141 0v1516h224l606 -910l94 -168h16v1078h236v-1516h-223l-605 907l-98 172h-16v-1079h-234zM346 1735q53 96 124 147t138 51q43 0 83 -13t78 -28.5t77 -29t80 -13.5q76 0 153 80l51 -49q-51 -98 -121.5 -149.5t-140.5 -51.5q-43 0 -81.5 12.5t-77.5 28t-77 27.5t-79 12 t-80 -17.5t-80 -58.5z" />
<glyph unicode="&#xd2;" horiz-adv-x="1406" d="M80 756q0 780 622 780q625 0 625 -780q0 -776 -625 -776q-623 0 -622 776zM348 756q0 -150 19.5 -255.5t62.5 -173t110.5 -98t161.5 -30.5t162 30.5t111 97t63.5 172t20.5 257.5q0 301 -84 432t-273 131q-94 0 -161.5 -32t-110.5 -99.5t-62.5 -174t-19.5 -257.5z M379 1962h266l143 -315l-190 -25z" />
<glyph unicode="&#xd3;" horiz-adv-x="1406" d="M80 756q0 780 622 780q625 0 625 -780q0 -776 -625 -776q-623 0 -622 776zM348 756q0 -150 19.5 -255.5t62.5 -173t110.5 -98t161.5 -30.5t162 30.5t111 97t63.5 172t20.5 257.5q0 301 -84 432t-273 131q-94 0 -161.5 -32t-110.5 -99.5t-62.5 -174t-19.5 -257.5z M598 1636l143 326h267l-220 -340z" />
<glyph unicode="&#xd4;" horiz-adv-x="1406" d="M80 756q0 780 622 780q625 0 625 -780q0 -776 -625 -776q-623 0 -622 776zM348 756q0 -150 19.5 -255.5t62.5 -173t110.5 -98t161.5 -30.5t162 30.5t111 97t63.5 172t20.5 257.5q0 301 -84 432t-273 131q-94 0 -161.5 -32t-110.5 -99.5t-62.5 -174t-19.5 -257.5z M373 1642v187l329 149l330 -149v-187l-330 150z" />
<glyph unicode="&#xd5;" horiz-adv-x="1406" d="M80 756q0 780 622 780q625 0 625 -780q0 -776 -625 -776q-623 0 -622 776zM328 1735q53 96 123.5 147t138.5 51q43 0 83 -13t77.5 -28.5t76.5 -29t80 -13.5q76 0 154 80l51 -49q-51 -98 -121.5 -149.5t-140.5 -51.5q-43 0 -82 12.5t-78 28t-77 27.5t-78 12 q-41 0 -80 -17.5t-80 -58.5zM348 756q0 -150 19.5 -255.5t62.5 -173t110.5 -98t161.5 -30.5t162 30.5t111 97t63.5 172t20.5 257.5q0 301 -84 432t-273 131q-94 0 -161.5 -32t-110.5 -99.5t-62.5 -174t-19.5 -257.5z" />
<glyph unicode="&#xd6;" horiz-adv-x="1406" d="M80 756q0 780 622 780q625 0 625 -780q0 -776 -625 -776q-623 0 -622 776zM305 1798q0 78 36 112t112 34q78 0 114.5 -34t36.5 -112t-36.5 -111.5t-114.5 -33.5q-147 0 -148 145zM348 756q0 -150 19.5 -255.5t62.5 -173t110.5 -98t161.5 -30.5t162 30.5t111 97t63.5 172 t20.5 257.5q0 301 -84 432t-273 131q-94 0 -161.5 -32t-110.5 -99.5t-62.5 -174t-19.5 -257.5zM795 1798q0 78 35.5 112t113.5 34q76 0 113 -34t37 -112t-37 -111.5t-113 -33.5q-150 0 -149 145z" />
<glyph unicode="&#xd7;" horiz-adv-x="976" d="M84 483l274 275l-274 274l129 131l274 -274l275 274l131 -131l-275 -274l275 -275l-129 -129l-277 275l-274 -275z" />
<glyph unicode="&#xd8;" horiz-adv-x="1417" d="M31 0l172 227q-119 188 -119 529q0 780 625 780q244 0 397 -125l80 105h200l-174 -228q121 -195 121 -532q0 -776 -624 -776q-248 0 -398 122l-78 -102h-202zM354 756q0 -90 6.5 -163t22.5 -132l575 756q-84 102 -249 102q-94 0 -162 -32t-111 -99.5t-62.5 -173.5 t-19.5 -258zM459 297q84 -98 250 -98q94 0 161.5 30.5t110.5 97t62.5 172t19.5 257.5q0 174 -29 295z" />
<glyph unicode="&#xd9;" horiz-adv-x="1419" d="M129 598v918h262v-910q0 -215 76 -310t244 -95t242.5 94t74.5 311v910h264v-918q0 -160 -31.5 -275.5t-101 -192.5t-180 -113.5t-268.5 -36.5q-160 0 -270.5 36.5t-179 113.5t-100.5 192.5t-32 275.5zM383 1962h266l144 -315l-191 -25z" />
<glyph unicode="&#xda;" horiz-adv-x="1419" d="M129 598v918h262v-910q0 -215 76 -310t244 -95t242.5 94t74.5 311v910h264v-918q0 -160 -31.5 -275.5t-101 -192.5t-180 -113.5t-268.5 -36.5q-160 0 -270.5 36.5t-179 113.5t-100.5 192.5t-32 275.5zM592 1636l143 326h266l-219 -340z" />
<glyph unicode="&#xdb;" horiz-adv-x="1419" d="M129 598v918h262v-910q0 -215 76 -310t244 -95t242.5 94t74.5 311v910h264v-918q0 -160 -31.5 -275.5t-101 -192.5t-180 -113.5t-268.5 -36.5q-160 0 -270.5 36.5t-179 113.5t-100.5 192.5t-32 275.5zM373 1642v187l329 149l330 -149v-187l-330 150z" />
<glyph unicode="&#xdc;" horiz-adv-x="1419" d="M129 598v918h262v-910q0 -215 76 -310t244 -95t242.5 94t74.5 311v910h264v-918q0 -160 -31.5 -275.5t-101 -192.5t-180 -113.5t-268.5 -36.5q-160 0 -270.5 36.5t-179 113.5t-100.5 192.5t-32 275.5zM307 1798q0 78 36 112t112 34q78 0 114.5 -34t36.5 -112 t-36.5 -111.5t-114.5 -33.5q-147 0 -148 145zM797 1798q0 78 35.5 112t113.5 34q76 0 113 -34t37 -112t-37 -111.5t-113 -33.5q-150 0 -149 145z" />
<glyph unicode="&#xdd;" horiz-adv-x="1280" d="M-10 1516h293l305 -637l43 -123h18l45 123l305 637h289l-516 -1004v-512h-262v506zM539 1636l143 326h266l-219 -340z" />
<glyph unicode="&#xde;" horiz-adv-x="1232" d="M141 0v1516h262v-234q31 2 61 2h60q340 0 497 -126t157 -404q0 -274 -155 -399.5t-497 -125.5h-61.5t-61.5 2v-231h-262zM403 453q12 -2 33 -3t43.5 -2.5t44 -1.5h33.5q98 0 166 16.5t108.5 52.5t59 94.5t18.5 144.5t-18.5 144t-59 95t-108.5 53.5t-166 16.5h-32.5 t-43 -2t-43 -4t-35.5 -4v-600z" />
<glyph unicode="&#xdf;" horiz-adv-x="1312" d="M119 0v1194q0 244 123 356.5t385 112.5t386 -112.5t124 -356.5v-260h-193q-88 -4 -136 -39t-48 -96q0 -74 49 -101.5t129 -44.5q66 -12 126 -32.5t106.5 -56.5t73 -94t26.5 -148q0 -162 -108.5 -253.5t-307.5 -91.5q-76 0 -160 13.5t-182 38.5v190q82 -25 168 -38 t164 -13q178 0 178 137q0 63 -40 97t-126 51q-53 8 -112.5 22t-109.5 48t-83 96.5t-33 171.5q0 147 96.5 236t264.5 99v68q0 143 -57.5 203.5t-192.5 60.5t-193.5 -59.5t-58.5 -204.5v-1194h-258z" />
<glyph unicode="&#xe0;" d="M55 299q0 160 97.5 244t302.5 100l215 14v52q0 63 -9.5 105t-34 67.5t-66.5 36t-105 10.5q-29 0 -67 -2t-79 -7.5t-83 -11.5t-74 -12l-19 188q96 18 188.5 28.5t174.5 10.5q223 0 327.5 -86t104.5 -270v-766h-213l-23 135h-16q-68 -63 -152 -104t-176 -41q-137 0 -215 83 t-78 226zM213 1649h268l140 -377l-185 -21zM313 324q1 -144 136 -144q53 0 113.5 31t107.5 61v232l-152 -15q-111 -10 -158 -49t-47 -116z" />
<glyph unicode="&#xe1;" d="M55 299q0 160 97.5 244t302.5 100l215 14v52q0 63 -9.5 105t-34 67.5t-66.5 36t-105 10.5q-29 0 -67 -2t-79 -7.5t-83 -11.5t-74 -12l-19 188q96 18 188.5 28.5t174.5 10.5q223 0 327.5 -86t104.5 -270v-766h-213l-23 135h-16q-68 -63 -152 -104t-176 -41q-137 0 -215 83 t-78 226zM313 324q1 -144 136 -144q53 0 113.5 31t107.5 61v232l-152 -15q-111 -10 -158 -49t-47 -116zM432 1266l139 381h267l-222 -398z" />
<glyph unicode="&#xe2;" d="M55 299q0 160 97.5 244t302.5 100l215 14v52q0 63 -9.5 105t-34 67.5t-66.5 36t-105 10.5q-29 0 -67 -2t-79 -7.5t-83 -11.5t-74 -12l-19 188q96 18 188.5 28.5t174.5 10.5q223 0 327.5 -86t104.5 -270v-766h-213l-23 135h-16q-68 -63 -152 -104t-176 -41q-137 0 -215 83 t-78 226zM207 1272v184l330 150l329 -150v-184l-329 149zM313 324q1 -144 136 -144q53 0 113.5 31t107.5 61v232l-152 -15q-111 -10 -158 -49t-47 -116z" />
<glyph unicode="&#xe3;" d="M55 299q0 160 97.5 244t302.5 100l215 14v52q0 63 -9.5 105t-34 67.5t-66.5 36t-105 10.5q-29 0 -67 -2t-79 -7.5t-83 -11.5t-74 -12l-19 188q96 18 188.5 28.5t174.5 10.5q223 0 327.5 -86t104.5 -270v-766h-213l-23 135h-16q-68 -63 -152 -104t-176 -41q-137 0 -215 83 t-78 226zM143 1356q53 92 124 140t139 48q43 0 82.5 -15.5t77.5 -34.5t76 -34.5t79 -15.5t75.5 19.5t69.5 64.5l62 -66q-51 -96 -122 -143t-140 -47q-43 0 -82 15.5t-78 33.5t-78 33.5t-78 15.5q-78 0 -149 -80zM313 324q1 -144 136 -144q53 0 113.5 31t107.5 61v232 l-152 -15q-111 -10 -158 -49t-47 -116z" />
<glyph unicode="&#xe4;" d="M55 299q0 160 97.5 244t302.5 100l215 14v52q0 63 -9.5 105t-34 67.5t-66.5 36t-105 10.5q-29 0 -67 -2t-79 -7.5t-83 -11.5t-74 -12l-19 188q96 18 188.5 28.5t174.5 10.5q223 0 327.5 -86t104.5 -270v-766h-213l-23 135h-16q-68 -63 -152 -104t-176 -41q-137 0 -215 83 t-78 226zM164 1413q0 68 32.5 98.5t102.5 30.5q135 0 135 -129q0 -133 -135 -133t-135 133zM313 324q1 -144 136 -144q53 0 113.5 31t107.5 61v232l-152 -15q-111 -10 -158 -49t-47 -116zM621 1413q0 68 32.5 98.5t102.5 30.5q135 0 135 -129q0 -133 -135 -133t-135 133z " />
<glyph unicode="&#xe5;" d="M55 299q0 160 97.5 244t302.5 100l215 14v52q0 63 -9.5 105t-34 67.5t-66.5 36t-105 10.5q-29 0 -67 -2t-79 -7.5t-83 -11.5t-74 -12l-19 188q96 18 188.5 28.5t174.5 10.5q223 0 327.5 -86t104.5 -270v-766h-213l-23 135h-16q-68 -63 -152 -104t-176 -41q-137 0 -215 83 t-78 226zM285 1450q0 98 64.5 161.5t172.5 63.5q111 0 175.5 -63.5t64.5 -161.5t-65.5 -160.5t-174.5 -62.5t-173 62.5t-64 160.5zM313 324q1 -144 136 -144q53 0 113.5 31t107.5 61v232l-152 -15q-111 -10 -158 -49t-47 -116zM408 1450q0 -53 29.5 -86t84.5 -33q57 0 88 33 t31 86t-30.5 86t-88.5 33q-55 0 -84.5 -33t-29.5 -86z" />
<glyph unicode="&#xe6;" horiz-adv-x="1640" d="M55 299q0 160 98.5 244t303.5 100l213 14v82q0 53 -11.5 89t-37 58.5t-67.5 32t-103 9.5q-59 0 -146.5 -9.5t-152.5 -23.5l-19 188q104 18 195.5 28.5t171.5 10.5q236 0 309 -159h14q113 160 340 159q406 0 406 -497q0 -55 -2 -89t-8 -67h-629q6 -154 66.5 -222.5 t189.5 -68.5q68 0 154.5 15.5t179.5 44.5l10 -195q-78 -29 -175.5 -46t-187.5 -17q-262 0 -374 184l-15 2q-135 -92 -234.5 -134t-195.5 -42q-137 0 -215 83t-78 226zM313 324q1 -144 136 -144q49 0 107 28t128 75q-4 10 -6 39.5t-4 65.5t-3 67.5t-1 48.5l-150 -15 q-113 -10 -160 -49t-47 -116zM930 625h409q-6 166 -47 235.5t-137 69.5q-211 0 -225 -305z" />
<glyph unicode="&#xe7;" horiz-adv-x="892" d="M72 553q0 291 128 431t386 140q121 0 235 -28v-207q-57 12 -109.5 17t-99.5 5q-147 0 -212.5 -83t-65.5 -273t64.5 -276t211.5 -86q53 0 103.5 5t107.5 19v-205q-43 -12 -98 -20t-113 -10q37 -59 53.5 -108.5t16.5 -102.5q0 -104 -61.5 -163t-178.5 -59q-37 0 -81 6.5 t-91 18.5v160q35 -10 71 -15.5t60 -5.5q104 0 105 94q0 74 -70 189q-182 37 -272 173t-90 384z" />
<glyph unicode="&#xe8;" d="M72 539q0 289 123.5 437t365.5 148q408 0 408 -499q0 -53 -3 -88t-10 -70h-624q8 -158 67.5 -222.5t184.5 -64.5q70 0 157.5 14.5t176.5 43.5l10 -193q-76 -29 -173.5 -46t-189.5 -17q-242 0 -367.5 141t-125.5 416zM211 1649h268l139 -377l-184 -21zM332 631h405 q-4 162 -47 231.5t-137 69.5q-104 0 -157.5 -72t-63.5 -229z" />
<glyph unicode="&#xe9;" d="M72 539q0 289 123.5 437t365.5 148q408 0 408 -499q0 -53 -3 -88t-10 -70h-624q8 -158 67.5 -222.5t184.5 -64.5q70 0 157.5 14.5t176.5 43.5l10 -193q-76 -29 -173.5 -46t-189.5 -17q-242 0 -367.5 141t-125.5 416zM332 631h405q-4 162 -47 231.5t-137 69.5 q-104 0 -157.5 -72t-63.5 -229zM451 1266l139 381h266l-221 -398z" />
<glyph unicode="&#xea;" d="M72 539q0 289 123.5 437t365.5 148q408 0 408 -499q0 -53 -3 -88t-10 -70h-624q8 -158 67.5 -222.5t184.5 -64.5q70 0 157.5 14.5t176.5 43.5l10 -193q-76 -29 -173.5 -46t-189.5 -17q-242 0 -367.5 141t-125.5 416zM213 1272v184l330 150l329 -150v-184l-329 149z M332 631h405q-4 162 -47 231.5t-137 69.5q-104 0 -157.5 -72t-63.5 -229z" />
<glyph unicode="&#xeb;" d="M72 539q0 289 123.5 437t365.5 148q408 0 408 -499q0 -53 -3 -88t-10 -70h-624q8 -158 67.5 -222.5t184.5 -64.5q70 0 157.5 14.5t176.5 43.5l10 -193q-76 -29 -173.5 -46t-189.5 -17q-242 0 -367.5 141t-125.5 416zM170 1413q0 68 33 98.5t102 30.5q135 0 135 -129 q0 -133 -135 -133t-135 133zM332 631h405q-4 162 -47 231.5t-137 69.5q-104 0 -157.5 -72t-63.5 -229zM627 1413q0 68 32.5 98.5t102.5 30.5q135 0 135 -129q0 -133 -135 -133t-135 133z" />
<glyph unicode="&#xec;" horiz-adv-x="499" d="M-63 1649h268l139 -377l-184 -21zM121 0v1106h256v-1106h-256z" />
<glyph unicode="&#xed;" horiz-adv-x="499" d="M121 0v1106h256v-1106h-256zM164 1266l139 381h266l-221 -398z" />
<glyph unicode="&#xee;" horiz-adv-x="501" d="M-57 1272v184l323 150l324 -150v-184l-324 149zM123 0v1106h256v-1106h-256z" />
<glyph unicode="&#xef;" horiz-adv-x="501" d="M-100 1413q0 68 32.5 98.5t102.5 30.5q135 0 135 -129q0 -133 -135 -133t-135 133zM123 0v1106h256v-1106h-256zM344 1413q0 68 33 98.5t102 30.5q135 0 135 -129q0 -133 -135 -133t-135 133z" />
<glyph unicode="&#xf0;" horiz-adv-x="1140" d="M72 553q0 281 123.5 427t359.5 146q66 0 118 -21.5t93 -70.5q-18 66 -42 128.5t-52 123.5l-281 -33v164l199 23q-35 57 -72 110.5t-80 104.5h264q66 -88 121 -189l271 33v-164l-193 -22q70 -158 112 -342.5t42 -397.5q0 -293 -125 -443t-367 -150t-366.5 146t-124.5 427z M332 553q0 -104 12 -175t40 -114t72 -62.5t107 -19.5t107.5 19.5t72 64.5t41 117t13.5 174q0 84 -11.5 151.5t-38 115.5t-71.5 74t-113 26q-63 0 -107 -19.5t-72 -63.5t-40 -115t-12 -173z" />
<glyph unicode="&#xf1;" horiz-adv-x="1132" d="M119 0v1106h219l14 -121h10q131 76 219.5 108.5t174.5 32.5q129 0 195.5 -74.5t66.5 -222.5v-829h-256v745q0 88 -32 125t-93 37q-55 0 -121.5 -23.5t-138.5 -64.5v-819h-258zM195 1356q53 92 123.5 140t138.5 48q43 0 83 -15.5t77.5 -34.5t75.5 -34.5t79 -15.5t76 19.5 t70 64.5l61 -66q-51 -96 -122 -143t-140 -47q-43 0 -82 15.5t-78 33.5t-78 33.5t-78 15.5q-78 0 -149 -80z" />
<glyph unicode="&#xf2;" horiz-adv-x="1126" d="M72 553q0 283 125 428t366 145q242 0 367 -145t125 -428t-125 -428t-367 -145t-366.5 146t-124.5 427zM238 1649h268l139 -377l-184 -21zM332 553q0 -102 12 -173t40 -115t72 -63.5t107 -19.5t108.5 19.5t73 62.5t40 114t12.5 175t-13.5 175t-41 114t-71.5 62.5 t-108 19.5q-63 0 -107 -19.5t-72 -62.5t-40 -114t-12 -175z" />
<glyph unicode="&#xf3;" horiz-adv-x="1126" d="M72 553q0 283 125 428t366 145q242 0 367 -145t125 -428t-125 -428t-367 -145t-366.5 146t-124.5 427zM332 553q0 -102 12 -173t40 -115t72 -63.5t107 -19.5t108.5 19.5t73 62.5t40 114t12.5 175t-13.5 175t-41 114t-71.5 62.5t-108 19.5q-63 0 -107 -19.5t-72 -62.5 t-40 -114t-12 -175zM463 1266l139 381h266l-221 -398z" />
<glyph unicode="&#xf4;" horiz-adv-x="1126" d="M72 553q0 283 125 428t366 145q242 0 367 -145t125 -428t-125 -428t-367 -145t-366.5 146t-124.5 427zM238 1272v184l329 150l330 -150v-184l-330 149zM332 553q0 -102 12 -173t40 -115t72 -63.5t107 -19.5t108.5 19.5t73 62.5t40 114t12.5 175t-13.5 175t-41 114 t-71.5 62.5t-108 19.5q-63 0 -107 -19.5t-72 -62.5t-40 -114t-12 -175z" />
<glyph unicode="&#xf5;" horiz-adv-x="1126" d="M72 553q0 283 125 428t366 145q242 0 367 -145t125 -428t-125 -428t-367 -145t-366.5 146t-124.5 427zM176 1356q53 92 124 140t138 48q43 0 83 -15.5t78 -34.5t76 -34.5t79 -15.5t75.5 19.5t69.5 64.5l62 -66q-51 -96 -122 -143t-141 -47q-43 0 -81.5 15.5t-77.5 33.5 t-78 33.5t-78 15.5q-78 0 -150 -80zM332 553q0 -102 12 -173t40 -115t72 -63.5t107 -19.5t108.5 19.5t73 62.5t40 114t12.5 175t-13.5 175t-41 114t-71.5 62.5t-108 19.5q-63 0 -107 -19.5t-72 -62.5t-40 -114t-12 -175z" />
<glyph unicode="&#xf6;" horiz-adv-x="1126" d="M72 553q0 283 125 428t366 145q242 0 367 -145t125 -428t-125 -428t-367 -145t-366.5 146t-124.5 427zM195 1413q0 68 32.5 98.5t102.5 30.5q135 0 135 -129q0 -133 -135 -133t-135 133zM332 553q0 -102 12 -173t40 -115t72 -63.5t107 -19.5t108.5 19.5t73 62.5t40 114 t12.5 175t-13.5 175t-41 114t-71.5 62.5t-108 19.5q-63 0 -107 -19.5t-72 -62.5t-40 -114t-12 -175zM651 1413q0 68 33 98.5t102 30.5q135 0 136 -129q-1 -133 -136 -133t-135 133z" />
<glyph unicode="&#xf7;" horiz-adv-x="1050" d="M90 666v184h871v-184h-871zM408 401q0 61 34.5 92t87.5 31t88 -30.5t35 -92.5q0 -63 -35 -94t-88 -31t-87.5 31t-34.5 94zM408 1106q0 63 34.5 95t87.5 32t88 -33t35 -94q0 -59 -35 -91t-88 -32t-87.5 32t-34.5 91z" />
<glyph unicode="&#xf8;" horiz-adv-x="1138" d="M25 0l143 174q-90 137 -90 379q0 281 123 427t368 146q186 0 308 -92l59 72h176l-141 -172q92 -141 92 -381q0 -281 -124 -427t-370 -146q-193 0 -309 92l-59 -72h-176zM338 553q0 -47 2 -87t6 -75l389 471q-53 61 -166 62q-66 0 -110.5 -19.5t-71.5 -63.5t-38 -115 t-11 -173zM401 244q53 -62 168 -62q66 0 111 19.5t72.5 63.5t39 115t11.5 173q0 47 -3 88t-7 76z" />
<glyph unicode="&#xf9;" horiz-adv-x="1130" d="M113 276v830h258v-752q0 -86 28.5 -121.5t98.5 -35.5q59 0 120.5 22.5t135.5 69.5v817h258v-1106h-217l-17 121h-8q-63 -39 -112.5 -65.5t-92.5 -44t-84 -24.5t-86 -7q-137 0 -209.5 75.5t-72.5 220.5zM242 1649h268l139 -377l-184 -21z" />
<glyph unicode="&#xfa;" horiz-adv-x="1130" d="M113 276v830h258v-752q0 -86 28.5 -121.5t98.5 -35.5q59 0 120.5 22.5t135.5 69.5v817h258v-1106h-217l-17 121h-8q-63 -39 -112.5 -65.5t-92.5 -44t-84 -24.5t-86 -7q-137 0 -209.5 75.5t-72.5 220.5zM467 1266l139 381h266l-221 -398z" />
<glyph unicode="&#xfb;" horiz-adv-x="1130" d="M113 276v830h258v-752q0 -86 28.5 -121.5t98.5 -35.5q59 0 120.5 22.5t135.5 69.5v817h258v-1106h-217l-17 121h-8q-63 -39 -112.5 -65.5t-92.5 -44t-84 -24.5t-86 -7q-137 0 -209.5 75.5t-72.5 220.5zM242 1272v184l329 150l330 -150v-184l-330 149z" />
<glyph unicode="&#xfc;" horiz-adv-x="1130" d="M113 276v830h258v-752q0 -86 28.5 -121.5t98.5 -35.5q59 0 120.5 22.5t135.5 69.5v817h258v-1106h-217l-17 121h-8q-63 -39 -112.5 -65.5t-92.5 -44t-84 -24.5t-86 -7q-137 0 -209.5 75.5t-72.5 220.5zM199 1413q0 68 32.5 98.5t102.5 30.5q135 0 135 -129 q0 -133 -135 -133t-135 133zM655 1413q0 68 33 98.5t103 30.5q135 0 135 -129q0 -133 -135 -133t-136 133z" />
<glyph unicode="&#xfd;" horiz-adv-x="1095" d="M14 1083v23h267l223 -686l35 -154h16l37 154l225 686h264v-23l-553 -1534l-252 48v16l140 393zM463 1266l139 381h266l-221 -398z" />
<glyph unicode="&#xfe;" horiz-adv-x="1136" d="M119 -451v2106h258v-656q55 59 133 92t170 33q383 0 383 -544q0 -295 -133 -447.5t-402 -152.5q-31 0 -70.5 4t-80.5 10v-445h-258zM377 182q41 -12 80.5 -18t72.5 -6q74 0 125.5 19.5t83 64.5t47 120.5t15.5 190.5q0 111 -11.5 184.5t-37 117.5t-65.5 63.5t-95 19.5 q-104 0 -159.5 -76t-55.5 -250v-430z" />
<glyph unicode="&#xff;" horiz-adv-x="1095" d="M14 1083v23h267l223 -686l35 -154h16l37 154l225 686h264v-23l-553 -1534l-252 48v16l140 393zM190 1413q0 68 33 98.5t103 30.5q135 0 135 -129q0 -133 -135 -133t-136 133zM647 1413q0 68 33 98.5t102 30.5q135 0 136 -129q-1 -133 -136 -133t-135 133z" />
<glyph unicode="&#x152;" horiz-adv-x="1890" d="M78 756q0 387 165 580.5t476 193.5q55 0 109.5 -4t99.5 -10h866v-218h-606v-424h559v-208h-559v-449h624v-217h-884q-45 -8 -99.5 -11t-109.5 -3q-311 0 -476 192.5t-165 577.5zM344 756q0 -150 21.5 -254.5t68.5 -170t122.5 -95t184.5 -29.5q47 0 95.5 2t89.5 10v1075 q-45 8 -92.5 11.5t-94.5 3.5q-109 0 -183.5 -31t-121.5 -97.5t-68.5 -172t-21.5 -252.5z" />
<glyph unicode="&#x153;" horiz-adv-x="1765" d="M72 553q0 283 125 428t366 145q127 0 216 -51t141 -149h14q106 199 354 198q406 0 406 -497q0 -53 -2 -87t-9 -69h-626q6 -154 66.5 -222.5t185.5 -68.5q72 0 158.5 14.5t177.5 43.5l10 -193q-78 -29 -174.5 -46t-188.5 -17q-129 0 -218 50t-142 144h-14 q-106 -197 -355 -196q-242 0 -366.5 146t-124.5 427zM332 553q0 -102 12 -173t40 -115t72 -63.5t107 -19.5t108.5 19.5t73 62.5t40 114t12.5 175t-13.5 175t-41 114t-71.5 62.5t-108 19.5q-63 0 -107 -19.5t-72 -62.5t-40 -114t-12 -175zM1057 627h407q-4 166 -47 235.5 t-137 69.5q-104 0 -159.5 -74t-63.5 -231z" />
<glyph unicode="&#x178;" horiz-adv-x="1280" d="M-10 1516h293l305 -637l43 -123h18l45 123l305 637h289l-516 -1004v-512h-262v506zM248 1798q0 78 35.5 112t111.5 34q78 0 115 -34t37 -112t-37 -111.5t-115 -33.5q-147 0 -147 145zM737 1798q0 78 36 112t114 34q76 0 112.5 -34t36.5 -112t-36.5 -111.5t-112.5 -33.5 q-150 0 -150 145z" />
<glyph unicode="&#x2c6;" horiz-adv-x="829" d="M76 1272v184l330 150l329 -150v-184l-329 149z" />
<glyph unicode="&#x2dc;" horiz-adv-x="917" d="M53 1356q53 92 124 140t138 48q43 0 83 -15.5t78 -34.5t76 -34.5t79 -15.5t75.5 19.5t69.5 64.5l62 -66q-51 -96 -122 -143t-141 -47q-43 0 -81.5 15.5t-77.5 33.5t-78 33.5t-78 15.5q-78 0 -149 -80z" />
<glyph unicode="&#x2000;" horiz-adv-x="996" />
<glyph unicode="&#x2001;" horiz-adv-x="1993" />
<glyph unicode="&#x2002;" horiz-adv-x="996" />
<glyph unicode="&#x2003;" horiz-adv-x="1993" />
<glyph unicode="&#x2004;" horiz-adv-x="664" />
<glyph unicode="&#x2005;" horiz-adv-x="498" />
<glyph unicode="&#x2006;" horiz-adv-x="332" />
<glyph unicode="&#x2007;" horiz-adv-x="332" />
<glyph unicode="&#x2008;" horiz-adv-x="249" />
<glyph unicode="&#x2009;" horiz-adv-x="398" />
<glyph unicode="&#x200a;" horiz-adv-x="110" />
<glyph unicode="&#x2010;" horiz-adv-x="837" d="M109 475v197h620v-197h-620z" />
<glyph unicode="&#x2011;" horiz-adv-x="837" d="M109 475v197h620v-197h-620z" />
<glyph unicode="&#x2012;" horiz-adv-x="837" d="M109 475v197h620v-197h-620z" />
<glyph unicode="&#x2013;" horiz-adv-x="1155" d="M115 475v197h927v-197h-927z" />
<glyph unicode="&#x2014;" horiz-adv-x="1505" d="M115 475v197h1278v-197h-1278z" />
<glyph unicode="&#x2018;" horiz-adv-x="415" d="M82 1243q0 109 37 220.5t96 197.5l123 -14q-29 -74 -46.5 -160t-17.5 -166q0 -66 12.5 -128.5t37.5 -129.5l-207 -16q-35 88 -35 196z" />
<glyph unicode="&#x2019;" horiz-adv-x="411" d="M80 1061q31 72 47 158t16 167q0 123 -49 256l207 19q35 -82 35 -199q0 -109 -37 -219t-96 -196z" />
<glyph unicode="&#x201a;" horiz-adv-x="428" d="M68 -287q31 72 47 158t16 168q0 123 -49 256l207 18q35 -82 35 -198q0 -109 -37 -219.5t-97 -196.5z" />
<glyph unicode="&#x201c;" horiz-adv-x="854" d="M82 1243q0 109 37 220.5t96 197.5l123 -14q-29 -74 -46.5 -160t-17.5 -166q0 -66 12.5 -128.5t37.5 -129.5l-207 -16q-35 88 -35 196zM520 1243q0 109 37 220.5t96 197.5l123 -14q-29 -74 -46 -160t-17 -166q0 -66 12 -128.5t37 -129.5l-207 -16q-35 88 -35 196z" />
<glyph unicode="&#x201d;" horiz-adv-x="847" d="M80 1061q31 72 47 158t16 167q0 123 -49 256l207 19q35 -82 35 -199q0 -109 -37 -219t-96 -196zM518 1061q31 72 47.5 158t16.5 167q0 123 -50 256l207 19q35 -82 35 -199q0 -109 -37 -219t-96 -196z" />
<glyph unicode="&#x201e;" horiz-adv-x="864" d="M68 -287q31 72 47 158t16 168q0 123 -49 256l207 18q35 -82 35 -198q0 -109 -37 -219.5t-97 -196.5zM506 -287q31 72 47 158t16 168q0 123 -49 256l207 18q35 -82 35 -198q0 -109 -37 -219.5t-96 -196.5z" />
<glyph unicode="&#x2022;" horiz-adv-x="667" d="M129 758q0 104 57.5 152t147.5 48t147.5 -48t57.5 -152t-57.5 -151.5t-147.5 -47.5t-147.5 47t-57.5 152z" />
<glyph unicode="&#x2026;" horiz-adv-x="1490" d="M90 135q0 145 150 146q154 0 153 -146q1 -145 -153 -145q-150 0 -150 145zM600 135q0 145 150 146q154 0 153 -146q1 -145 -153 -145q-150 0 -150 145zM1098 135q0 145 149 146q154 0 154 -146q0 -145 -154 -145q-150 0 -149 145z" />
<glyph unicode="&#x202f;" horiz-adv-x="398" />
<glyph unicode="&#x2039;" horiz-adv-x="641" d="M61 549v8l250 487h262l-249 -487v-8l249 -488h-262z" />
<glyph unicode="&#x203a;" horiz-adv-x="641" d="M70 61l249 488v8l-249 487h260l252 -487v-8l-252 -488h-260z" />
<glyph unicode="&#x205f;" horiz-adv-x="498" />
<glyph unicode="&#x20ac;" horiz-adv-x="1208" d="M70 508v154h151q-2 23 -2 46v48v49t2 47h-151v154h168q47 270 211.5 399t459.5 129q72 0 127.5 -7t100.5 -20l-58 -209q-33 4 -65.5 7.5t-67.5 3.5q-102 0 -177 -15.5t-128 -51.5t-86 -94t-49 -142h483l-39 -154h-463q-2 -23 -2 -47.5v-48.5v-48.5t2 -45.5h435l-39 -154 h-377q33 -166 135 -235.5t303 -69.5q43 0 88 5t90 15v-219q-80 -25 -209 -24q-295 2 -460.5 131t-212.5 397h-170z" />
<glyph unicode="&#x2122;" horiz-adv-x="1794" d="M55 1368v148h654v-148h-240v-713h-174v713h-240zM803 655v861h225l207 -576l207 576h225v-861h-160v598l-198 -559h-146l-198 557v-596h-162z" />
<glyph unicode="&#x25fc;" horiz-adv-x="1105" d="M0 0v1106h1106v-1106h-1106z" />
</font>
</defs>
</svg>
