<?xml version="1.0" standalone="no"?>
<!DOCTYPE svg PUBLIC "-//W3C//DTD SVG 1.1//EN" "http://www.w3.org/Graphics/SVG/1.1/DTD/svg11.dtd" >
<svg xmlns="http://www.w3.org/2000/svg" xmlns:xlink="http://www.w3.org/1999/xlink" version="1.1">
<metadata></metadata>
<defs>
<font id="encode_sans_condensedbold" horiz-adv-x="1333" >
<font-face units-per-em="2048" ascent="1638" descent="-410" />
<missing-glyph horiz-adv-x="387" />
<glyph unicode="&#xfb01;" horiz-adv-x="1320" d="M27 848v258h182v57q0 139 29.5 233.5t97 153t178.5 86t274 33.5l17 -231q-84 -6 -140.5 -19.5t-89 -42t-46 -75t-13.5 -115.5v-80h244v-258h-244v-848h-309v848h-180zM885 1442q0 88 40 128t132 40t132 -41t40 -127t-40 -127t-132 -41t-132 40t-40 128zM901 0v1106h309 v-1106h-309z" />
<glyph unicode="&#xfb02;" horiz-adv-x="1320" d="M27 848v258h182v57q0 139 29.5 233.5t97 153t178.5 86t274 33.5l17 -231q-84 -6 -140.5 -19.5t-89 -42t-46 -75t-13.5 -115.5v-80h244v-258h-244v-848h-309v848h-180zM901 0v1655h309v-1655h-309z" />
<glyph unicode="&#xfb03;" horiz-adv-x="2062" d="M27 848v258h182v57q0 139 29.5 233.5t97 153t178.5 86t274 33.5l17 -231q-84 -6 -140.5 -19.5t-89 -42t-46 -75t-13.5 -115.5v-80h434v57q0 139 30 233.5t97.5 153t178 86t274.5 33.5l16 -231q-84 -6 -140 -19.5t-89 -42t-46.5 -75t-13.5 -115.5v-80h244v-258h-244v-848 h-309v848h-432v-848h-309v848h-180zM1626 1442q0 88 40 128t132 40t132 -41t40 -127t-40 -127t-132 -41t-132 40t-40 128zM1642 0v1106h310v-1106h-310z" />
<glyph unicode="&#xfb04;" horiz-adv-x="2062" d="M27 848v258h182v57q0 139 29.5 233.5t97 153t178.5 86t274 33.5l17 -231q-84 -6 -140.5 -19.5t-89 -42t-46 -75t-13.5 -115.5v-80h434v57q0 139 30 233.5t97.5 153t178 86t274.5 33.5l16 -231q-84 -6 -140 -19.5t-89 -42t-46.5 -75t-13.5 -115.5v-80h244v-258h-244v-848 h-309v848h-432v-848h-309v848h-180zM1642 0v1655h310v-1655h-310z" />
<glyph horiz-adv-x="0" />
<glyph unicode="&#xd;" horiz-adv-x="573" />
<glyph horiz-adv-x="0" />
<glyph horiz-adv-x="0" />
<glyph unicode=" "  horiz-adv-x="387" />
<glyph unicode="&#x09;" horiz-adv-x="387" />
<glyph unicode="&#xa0;" horiz-adv-x="387" />
<glyph unicode="!" horiz-adv-x="552" d="M109 152q0 78 45 119.5t125 41.5q82 0 127 -42t45 -119q0 -78 -45 -120t-127 -42q-80 0 -125 42t-45 120zM117 1495v21h321v-21l-63 -983v-23h-193v23z" />
<glyph unicode="&#x22;" horiz-adv-x="823" d="M102 983v672h246v-8l-82 -664h-164zM512 983v672h246v-8l-82 -664h-164z" />
<glyph unicode="#" horiz-adv-x="1130" d="M80 418v194h164l22 291h-186v195h203l34 418h211l-34 -418h194l35 418h211l-35 -418h154v-195h-170l-23 -291h191v-194h-207l-33 -418h-213l35 418h-195l-32 -418h-211l32 418h-147zM455 612h194l23 291h-195z" />
<glyph unicode="$" horiz-adv-x="1130" d="M72 49l4 262q47 -16 101 -29.5t110.5 -23.5t110 -16t100.5 -6q254 0 254 182q0 47 -18.5 79.5t-54.5 56.5t-85 42t-111 37q-90 25 -162.5 57.5t-125 86.5t-81 132t-28.5 193q0 166 93 274.5t267 145.5v278h267v-266q66 -4 136.5 -17.5t154.5 -33.5l-3 -256 q-90 25 -189 40t-171 15q-113 0 -173 -45t-60 -131q0 -47 19 -80t56 -58.5t90.5 -47t120.5 -43.5q86 -29 156 -64t120 -86t76.5 -121.5t26.5 -171.5q0 -176 -91 -288.5t-259 -149.5v-281h-266v265q-92 6 -191.5 22t-193.5 47z" />
<glyph unicode="%" horiz-adv-x="1992" d="M59 1051q0 240 98.5 362.5t286.5 122.5t286.5 -123t98.5 -362q0 -240 -98.5 -362t-286.5 -122t-286.5 122t-98.5 362zM289 1051q0 -154 35.5 -219.5t119.5 -65.5q82 0 118 65.5t36 219.5t-37 219t-117 65q-82 0 -118.5 -65.5t-36.5 -218.5zM571 0l590 1516h258 l-592 -1516h-256zM1165 461q0 240 99.5 362.5t285.5 122.5q188 0 286.5 -123t98.5 -362q0 -240 -98.5 -362t-286.5 -122t-286.5 122t-98.5 362zM1395 461q0 -154 36.5 -219.5t118.5 -65.5t119 65.5t37 219.5t-37 220.5t-119 66.5t-118.5 -67t-36.5 -220z" />
<glyph unicode="&#x26;" horiz-adv-x="1417" d="M76 422q0 141 70.5 243.5t199.5 145.5q-78 86 -110.5 167t-32.5 171q0 188 129 289.5t364 101.5q90 0 180.5 -15.5t192.5 -49.5l2 -11l-35 -225h-12q-76 29 -156 45t-143 16q-215 0 -215 -188q0 -98 85 -192.5t271 -208.5l131 -82q0 16 1 34.5t1 36.5v156l273 12v-166 q0 -121 -23 -229l168 -102v-15l-112 -243h-15l-151 102q-82 -117 -210 -176t-298 -59q-127 0 -230.5 30.5t-175 88t-110.5 139t-39 184.5zM387 440q0 -104 71.5 -165.5t192.5 -61.5q197 0 279 145l-176 121q-72 47 -131.5 90t-108.5 84q-127 -59 -127 -213z" />
<glyph unicode="'" horiz-adv-x="413" d="M102 983v672h246v-8l-82 -664h-164z" />
<glyph unicode="(" horiz-adv-x="655" d="M61 725q0 285 79 554t235 499h270v-9q-156 -229 -245 -495t-89 -549t89 -549t245 -495v-9h-270q-156 229 -235 499.5t-79 553.5z" />
<glyph unicode=")" horiz-adv-x="653" d="M10 -319q156 229 244 495t88 549t-88 549t-244 495v9h269q158 -229 236.5 -498.5t78.5 -554.5q0 -283 -79 -553t-236 -500h-269v9z" />
<glyph unicode="*" horiz-adv-x="1005" d="M61 1321l58 182l147 -47l193 -117l-51 222v153h190v-153l-51 -222l190 117l148 47l59 -182l-147 -47l-224 -19l172 -145l91 -127l-154 -111l-92 125l-88 211l-88 -211l-90 -125l-156 111l92 127l168 145l-221 19z" />
<glyph unicode="+" horiz-adv-x="1034" d="M66 651v213h346v330h213v-330h346v-213h-346v-329h-213v329h-346z" />
<glyph unicode="," horiz-adv-x="518" d="M35 -297l88 612h313l-170 -632z" />
<glyph unicode="-" horiz-adv-x="874" d="M100 459v229h672v-229h-672z" />
<glyph unicode="." horiz-adv-x="507" d="M78 154q0 88 43 128t131 40t133 -40t45 -128q0 -168 -178 -168q-174 0 -174 168z" />
<glyph unicode="/" horiz-adv-x="747" d="M47 -246l387 1762h266l-385 -1762h-268z" />
<glyph unicode="0" horiz-adv-x="1296" d="M78 756q0 385 145.5 582.5t423.5 197.5q279 0 424.5 -196.5t145.5 -583.5q0 -385 -145.5 -580.5t-424.5 -195.5t-424 195.5t-145 580.5zM393 756q0 -139 14.5 -237.5t45 -161t78.5 -91t116 -28.5t116 28.5t78.5 91t45 160.5t14.5 238q0 281 -60.5 401.5t-193.5 120.5 t-193.5 -122t-60.5 -400z" />
<glyph unicode="1" horiz-adv-x="847" d="M16 1214l7 33l434 269h237v-1516h-317v1174h-8l-273 -117h-33z" />
<glyph unicode="2" horiz-adv-x="1085" d="M70 0v242q0 98 23.5 176t71.5 142.5t118.5 118.5t167.5 109q127 74 183 139.5t56 155.5q0 100 -60.5 146.5t-193.5 46.5q-72 0 -151.5 -12.5t-153.5 -34.5l-27 252q123 29 226.5 41t193.5 12q481 0 482 -414q0 -166 -84 -282.5t-250 -219.5q-78 -51 -130.5 -88.5 t-84 -70.5t-45 -65t-13.5 -70v-64h600v-260h-929z" />
<glyph unicode="3" horiz-adv-x="1030" d="M82 1503q68 16 150.5 24.5t158.5 8.5q524 0 524 -387q0 -143 -65.5 -235.5t-190.5 -127.5v-8q141 -31 219 -126t78 -242q0 -205 -145.5 -315.5t-417.5 -114.5q-78 0 -158.5 7t-150.5 21v238h10q43 -14 112.5 -22.5t135.5 -8.5q160 0 227.5 51t67.5 168q0 121 -69.5 174.5 t-245.5 53.5h-89v221h86q78 0 131.5 11t85 35.5t46 64.5t14.5 100q0 106 -55.5 154t-184.5 48q-49 0 -115.5 -8t-144.5 -22h-10z" />
<glyph unicode="4" horiz-adv-x="1193" d="M25 504v12l491 1020h8l305 -25l15 -16l-500 -936v-10h336l74 422h229v-422h172v-234h-172v-315h-315v315h-607z" />
<glyph unicode="5" horiz-adv-x="1030" d="M84 8v250h68q113 -27 210 -27q147 0 219 54.5t72 175.5q0 63 -20.5 107t-66.5 71t-121.5 39t-188.5 12h-141l-15 15l56 811h729v-259h-490l-22 -342q156 -2 269.5 -27.5t187 -80.5t109.5 -141t36 -209q0 -121 -42 -212t-119 -150.5t-184.5 -89.5t-236.5 -30 q-68 0 -142.5 8.5t-166.5 24.5z" />
<glyph unicode="6" horiz-adv-x="1216" d="M78 682q0 422 179 638t534 216q127 0 286 -37l-35 -242q-76 16 -132 24.5t-109 8.5q-193 0 -291 -106.5t-121 -337.5q59 53 140 82.5t173 29.5q104 0 190.5 -31.5t146 -91t92 -142.5t32.5 -187q0 -121 -38 -218.5t-106.5 -166t-167.5 -105t-222 -36.5q-268 0 -409.5 179 t-141.5 523zM383 633q6 -211 64.5 -308.5t181.5 -97.5q109 0 165 69t56 202q0 241 -223 241q-68 0 -134.5 -29.5t-109.5 -76.5z" />
<glyph unicode="7" horiz-adv-x="966" d="M35 1481l37 35h831l41 -177v-49l-452 -1288l-62 -41l-262 39v37l453 1214h-580z" />
<glyph unicode="8" horiz-adv-x="1198" d="M76 379q0 141 60.5 235.5t170.5 153.5q-84 53 -137 138t-53 229q0 92 34.5 165.5t99 126t155 80t200.5 27.5q221 0 349 -106.5t128 -292.5q0 -125 -44 -203t-144 -137q98 -49 162.5 -134.5t64.5 -238.5q0 -203 -133 -316.5t-389 -113.5q-258 0 -391 101.5t-133 285.5z M367 418q0 -106 62.5 -163.5t170.5 -57.5q109 0 169 52t60 148q0 61 -22.5 105.5t-62 76t-95 54t-121.5 43.5q-72 -45 -116.5 -105.5t-44.5 -152.5zM395 1116q0 -53 20.5 -91t57.5 -65.5t87 -47t110 -38.5q66 43 100.5 103.5t34.5 148.5q0 96 -53.5 146.5t-151.5 50.5 q-96 0 -150.5 -53.5t-54.5 -153.5z" />
<glyph unicode="9" horiz-adv-x="1216" d="M53 1010q0 121 38 218t106.5 165.5t168 105.5t222.5 37q268 0 409.5 -179t141.5 -523q0 -422 -179.5 -638t-533.5 -216q-127 0 -287 36l35 242q76 -16 132 -24.5t110 -8.5q193 0 291 106.5t120 338.5q-59 -53 -140 -83t-173 -30q-104 0 -190 32t-145.5 91t-92.5 142 t-33 188zM367 1018q0 -242 223 -242q68 0 134.5 30t109.5 77q-6 211 -64.5 308t-181.5 97q-109 0 -165 -68.5t-56 -201.5z" />
<glyph unicode=":" horiz-adv-x="538" d="M92 154q0 88 43 128t131 40t133 -40t45 -128q0 -168 -178 -168q-174 0 -174 168zM92 952q0 88 43 128t131 40t133 -40t45 -128q0 -168 -178 -168q-174 0 -174 168z" />
<glyph unicode=";" horiz-adv-x="561" d="M53 -297l88 612h314l-170 -632zM117 952q0 88 43 128t131 40t133 -40t45 -128q0 -168 -178 -168q-174 0 -174 168z" />
<glyph unicode="&#x3c;" horiz-adv-x="1093" d="M63 641v209l920 397v-235l-618 -267l616 -266v-235z" />
<glyph unicode="=" horiz-adv-x="1077" d="M109 383v221h860v-221h-860zM109 834v219h860v-219h-860z" />
<glyph unicode="&#x3e;" horiz-adv-x="1095" d="M113 1012v235l919 -397v-209l-917 -397v235l616 266z" />
<glyph unicode="?" horiz-adv-x="897" d="M57 1487q78 23 158 34t166 11q104 0 189 -24.5t145.5 -75t94.5 -126t34 -178.5q0 -90 -29 -160.5t-79 -121.5t-118.5 -84t-148.5 -49l-12 -232v-32h-201v30l-25 371q68 14 126.5 34.5t100.5 49.5t65.5 69.5t23.5 96.5q0 104 -63.5 147t-161.5 43q-59 0 -130 -11t-120 -26 zM190 150q0 78 45.5 119.5t124.5 41.5q82 0 127 -42t45 -119q0 -78 -45 -121t-127 -43q-80 0 -125 43t-45 121z" />
<glyph unicode="@" horiz-adv-x="1703" d="M72 535q0 207 59 364.5t165.5 265t256 162.5t330.5 55q193 0 332 -53t229 -151.5t133 -237.5t43 -313q0 -121 -23.5 -218.5t-70.5 -166t-118 -105.5t-165 -37q-90 0 -146.5 42t-68.5 134h-8q-55 -88 -137 -125.5t-166 -37.5q-72 0 -125 27.5t-88 76.5t-52.5 115.5 t-17.5 142.5q0 117 34 214t96.5 169t152.5 112t203 40q68 0 149.5 -20.5t175.5 -59.5l-76 -422q-6 -35 -11 -67.5t-5 -63.5q0 -49 20.5 -82t77.5 -33q86 0 130 97.5t44 267.5q0 133 -30.5 239.5t-97 181t-169 114.5t-245.5 40q-139 0 -253 -43t-195 -128t-126 -210t-45 -286 q0 -174 47 -296t125 -199t181.5 -111.5t213.5 -34.5q86 0 187.5 22.5t210.5 56.5l59 -163q-121 -39 -237 -64t-220 -25q-150 0 -286.5 44.5t-242 141.5t-168 251.5t-62.5 376.5zM625 475q0 -80 29.5 -138t101.5 -58q33 0 69.5 13t70.5 44t59.5 80t37.5 121l49 290 q-68 18 -120 19q-68 0 -123.5 -27.5t-93 -78t-59 -118t-21.5 -147.5z" />
<glyph unicode="A" d="M0 0v14l430 1502h473l430 -1502v-14h-301l-108 377h-516l-107 -377h-301zM473 629h385l-115 405l-65 248h-25l-65 -248z" />
<glyph unicode="B" horiz-adv-x="1286" d="M131 10v1495q141 16 247.5 23.5t205.5 7.5q311 0 453.5 -101.5t142.5 -324.5q0 -268 -236 -328v-8q135 -27 207 -120t72 -242q0 -432 -631 -432q-113 0 -231.5 7t-229.5 23zM424 227q56 -12 199 -12q278 4 278 215q0 121 -65.5 171t-221.5 50h-190v-424zM424 874h180 q70 0 119 11.5t78.5 37t43 66.5t13.5 101q0 111 -59.5 159.5t-188.5 48.5q-49 0 -94 -3t-92 -9v-412z" />
<glyph unicode="C" horiz-adv-x="1095" d="M72 756q0 401 163.5 590.5t493.5 189.5q135 0 307 -31v-254q-78 12 -142.5 18.5t-119.5 6.5q-104 0 -176 -24.5t-117 -84t-64.5 -160t-19.5 -251.5q0 -150 19.5 -249t64.5 -158.5t116 -84t173 -24.5q59 0 134 8t132 20v-250q-53 -16 -133 -27t-164 -11q-338 0 -502.5 188 t-164.5 588z" />
<glyph unicode="D" horiz-adv-x="1382" d="M131 -2v1513q135 10 235.5 16.5t180.5 6.5q205 0 349 -44t236.5 -138.5t135.5 -241.5t43 -354q0 -209 -45 -357.5t-141.5 -243t-249 -138.5t-369.5 -44q-176 0 -375 25zM442 242q53 -6 94 -9.5t80 -3.5q102 0 173 27t114 88.5t62.5 162.5t19.5 251q0 147 -19.5 247.5 t-64.5 162t-118.5 88t-182.5 26.5q-78 0 -158 -12v-1028z" />
<glyph unicode="E" horiz-adv-x="1179" d="M131 0v1516h963v-261h-648v-364h580v-258h-580v-373h666v-260h-981z" />
<glyph unicode="F" horiz-adv-x="1124" d="M131 0v1516h942v-261h-627v-397h566v-258h-566v-600h-315z" />
<glyph unicode="G" horiz-adv-x="1269" d="M70 756q0 397 179 588.5t550 191.5q82 0 176 -11.5t182 -33.5v-252q-209 37 -330 37q-123 0 -204.5 -26.5t-133 -88t-73 -161t-21.5 -244.5t19.5 -244.5t63.5 -160t116 -86t176 -25.5q53 0 119 6v524h287v-743q-133 -23 -239 -35t-196 -12q-342 0 -506.5 191t-164.5 585z " />
<glyph unicode="H" horiz-adv-x="1462" d="M131 0v1516h315v-611h568v611h317v-1516h-317v645h-568v-645h-315z" />
<glyph unicode="I" horiz-adv-x="577" d="M131 0v1516h315v-1516h-315z" />
<glyph unicode="J" horiz-adv-x="577" d="M-23 -326q45 104 76 189.5t49.5 168.5t25.5 170t7 193v1121h318v-1145q0 -104 -14.5 -198.5t-47.5 -189t-85 -191.5t-128 -210z" />
<glyph unicode="K" horiz-adv-x="1329" d="M131 0v1516h315v-615h177l325 615h352l-374 -676l-103 -56v-14l107 -53l409 -717h-352l-362 641h-179v-641h-315z" />
<glyph unicode="L" horiz-adv-x="1007" d="M131 0v1516h315v-1258h537v-258h-852z" />
<glyph unicode="M" horiz-adv-x="1851" d="M131 0v1516h442l279 -793l66 -266h14l65 266l279 793h444v-1516h-293v1130h-12l-92 -303l-266 -755h-266l-267 755l-94 303h-12v-1130h-287z" />
<glyph unicode="N" horiz-adv-x="1474" d="M131 0v1516h262l561 -826l95 -168h16v994h281v-1516h-263l-559 823l-96 172h-18v-995h-279z" />
<glyph unicode="O" horiz-adv-x="1437" d="M72 756q0 780 647 780t647 -780q0 -776 -647 -776t-647 776zM395 756q0 -141 17.5 -239.5t56.5 -160t100.5 -89t149.5 -27.5t149.5 26.5t100.5 88t56 159.5t17 242q0 143 -17 242.5t-56 162t-100.5 90t-149.5 27.5t-149.5 -27.5t-100.5 -90t-56.5 -162t-17.5 -242.5z" />
<glyph unicode="P" horiz-adv-x="1263" d="M131 0v1505q203 31 399 31q180 0 311.5 -30.5t215.5 -97.5t124 -169t40 -244q0 -279 -164 -407.5t-516 -128.5h-95v-459h-315zM446 721q29 -4 67 -7t71 -3q86 0 146.5 14t97 48t53 88t16.5 134q0 156 -68.5 221.5t-242.5 65.5q-33 0 -73 -4t-67 -8v-549z" />
<glyph unicode="Q" horiz-adv-x="1433" d="M68 756q0 780 647 780q649 0 649 -780q0 -307 -131 -479.5t-389 -204.5v-23q74 -20 134 -33.5t121.5 -23.5t129 -16.5t151.5 -12.5l-143 -250q-332 80 -556 168t-360.5 207t-194.5 279.5t-58 388.5zM387 756q0 -143 17.5 -242.5t56.5 -162t101.5 -90.5t152.5 -28 t152.5 28t102.5 90.5t58.5 161.5t18.5 243q0 143 -18.5 243.5t-58.5 164t-102.5 91t-152.5 27.5t-151.5 -27.5t-101.5 -91t-57.5 -164t-17.5 -243.5z" />
<glyph unicode="R" horiz-adv-x="1292" d="M131 0v1505q96 16 196.5 23.5t202.5 7.5q362 0 526.5 -122t164.5 -392q0 -332 -271 -444l318 -578h-338l-258 522q-27 -2 -53.5 -3t-55.5 -1h-23.5h-34t-34.5 1t-25 1v-520h-315zM446 772q29 -4 66 -7t72 -3q88 0 147.5 14.5t96 45t53 79.5t16.5 121t-16.5 122t-53 80.5 t-96 44t-145.5 13.5q-29 0 -69 -4t-71 -8v-498z" />
<glyph unicode="S" horiz-adv-x="1118" d="M68 49l4 262q47 -16 101 -29.5t110.5 -23.5t109.5 -16t101 -6q254 0 254 182q0 47 -18.5 79.5t-54.5 56.5t-85 42t-111 37q-90 25 -162.5 57.5t-125 86.5t-81 132t-28.5 193q0 100 36 181t104.5 138.5t166.5 87t221 29.5q88 0 181.5 -13.5t207.5 -41.5l-2 -256 q-90 25 -189 40t-171 15q-113 0 -173.5 -45t-60.5 -131q0 -47 19.5 -80t56.5 -58.5t90.5 -47t120.5 -43.5q86 -29 155.5 -64t120 -86t77 -121.5t26.5 -171.5q0 -217 -138 -338t-390 -121q-109 0 -233 18.5t-240 55.5z" />
<glyph unicode="T" horiz-adv-x="1150" d="M35 1251v265h1083v-265h-385v-1251h-317v1251h-381z" />
<glyph unicode="U" horiz-adv-x="1441" d="M119 596v920h315v-910q0 -193 66.5 -277.5t220.5 -84.5t220.5 84t66.5 278v910h315v-920q0 -158 -31.5 -273.5t-103.5 -192.5t-186.5 -113.5t-280.5 -36.5t-280.5 37.5t-186.5 113.5t-103.5 191.5t-31.5 273.5z" />
<glyph unicode="V" horiz-adv-x="1331" d="M-2 1516h319l271 -922l67 -307h23l72 307l268 922h311l-448 -1516h-430z" />
<glyph unicode="W" horiz-adv-x="1998" d="M14 1516h346l175 -928l32 -226h23l41 226l217 928h313l211 -928l41 -226h21l34 226l181 928h338l-361 -1516h-389l-190 803l-35 284h-21l-35 -284l-196 -803h-389z" />
<glyph unicode="X" horiz-adv-x="1335" d="M-18 0l483 782l-447 734h357l272 -476l25 -53h8l25 53l268 476h344l-453 -725l492 -791h-352l-318 530l-22 50h-11l-20 -50l-305 -530h-346z" />
<glyph unicode="Y" horiz-adv-x="1337" d="M-14 1516h350l282 -594l41 -123h19l43 123l283 594h346l-523 -1006v-510h-315v506z" />
<glyph unicode="Z" horiz-adv-x="1161" d="M55 0v266l660 971v16h-631v263h993v-265l-659 -975v-16h690v-260h-1053z" />
<glyph unicode="[" horiz-adv-x="698" d="M139 -328v2106h514v-203h-272v-1700h272v-203h-514z" />
<glyph unicode="\" horiz-adv-x="745" d="M47 1516h264l385 -1762h-262z" />
<glyph unicode="]" horiz-adv-x="698" d="M45 -125h272v1700h-272v203h514v-2106h-514v203z" />
<glyph unicode="^" horiz-adv-x="919" d="M61 985l261 631h274l260 -631h-219l-174 438h-8l-174 -438h-220z" />
<glyph unicode="_" horiz-adv-x="1157" d="M78 -121h1001v-229h-1001v229z" />
<glyph unicode="`" horiz-adv-x="563" d="M29 1651h319l137 -381l-221 -21z" />
<glyph unicode="a" horiz-adv-x="1075" d="M49 309q0 319 404 346l211 15v22q0 59 -8.5 98t-31 63t-61.5 33t-100 9q-29 0 -69 -3t-83 -7t-86 -10.5t-75 -12.5l-21 221q98 16 195.5 27.5t185.5 11.5q242 0 351.5 -87t109.5 -273v-762h-254l-25 133h-18q-63 -66 -145.5 -104.5t-174.5 -38.5q-141 0 -223 86t-82 233z M358 340q0 -127 117 -127q47 0 98.5 23.5t90.5 52.5v203l-136 -13q-94 -10 -132 -41.5t-38 -97.5z" />
<glyph unicode="b" horiz-adv-x="1169" d="M109 53v1602h309v-662q102 131 295 131q391 0 391 -538q0 -137 -32 -248t-99.5 -189.5t-171 -122.5t-246.5 -46q-94 0 -200.5 17t-245.5 56zM418 209q29 -10 64.5 -15.5t76.5 -5.5q63 0 108.5 17.5t72 60.5t39 113t12.5 174q0 100 -9.5 166.5t-31 106.5t-56.5 56.5 t-86 16.5q-92 0 -141 -66.5t-49 -234.5v-389z" />
<glyph unicode="c" horiz-adv-x="917" d="M66 553q0 293 133 432t401 139q66 0 130.5 -7t117.5 -23v-244q-59 10 -113.5 16t-101.5 6q-137 0 -195.5 -72.5t-58.5 -244.5t58.5 -248t193.5 -76q59 0 110.5 5.5t106.5 17.5v-240q-47 -16 -113.5 -24t-134.5 -8q-268 0 -401 138t-133 433z" />
<glyph unicode="d" horiz-adv-x="1171" d="M66 524q0 299 140 449.5t406 150.5q33 0 66 -3t74 -7v541h309v-1655h-279l-20 119h-10q-100 -137 -293 -137q-393 0 -393 542zM381 557q0 -98 9 -165.5t30.5 -109.5t56.5 -59.5t84 -17.5q45 0 81 15.5t60.5 51t37 94t12.5 142.5v385q-63 20 -148 20q-61 0 -104 -17 t-68.5 -58t-38 -110t-12.5 -171z" />
<glyph unicode="e" horiz-adv-x="1067" d="M66 541q0 289 128 436t384 147q426 0 426 -508q0 -55 -2.5 -91t-10.5 -70h-616q6 -70 20.5 -116t41 -73.5t66.5 -39t97 -11.5q72 0 166 15.5t188 41.5l11 -227q-80 -29 -185.5 -46t-201.5 -17q-256 0 -384 141t-128 418zM375 639h354q-4 141 -41 200.5t-123 59.5 q-92 0 -136 -59.5t-54 -200.5z" />
<glyph unicode="f" horiz-adv-x="780" d="M27 848v258h182v57q0 139 29.5 233.5t97 153t178.5 86t274 33.5l17 -231q-84 -6 -140.5 -19.5t-89 -42t-46 -75t-13.5 -115.5v-80h244v-258h-244v-848h-309v848h-180z" />
<glyph unicode="g" horiz-adv-x="1171" d="M68 530q0 295 141 444.5t403 149.5q94 0 198.5 -15t252.5 -54v-912q0 -156 -38 -267.5t-110.5 -184t-176 -107.5t-232.5 -35q-90 0 -183.5 12.5t-179.5 35.5l21 227q164 -41 303 -41q147 0 222 68.5t77 238.5v72h-12q-98 -135 -289 -135q-199 0 -298 122.5t-99 380.5z M381 561q0 -90 9 -151.5t30.5 -100.5t56.5 -55t86 -16q92 0 141.5 65.5t49.5 220.5v369q-63 20 -150 20q-61 0 -104 -17t-68.5 -57t-38 -108.5t-12.5 -169.5z" />
<glyph unicode="h" horiz-adv-x="1167" d="M111 0v1655h309v-658q123 72 207 100.5t166 28.5q129 0 198.5 -77.5t69.5 -221.5v-827h-309v723q0 143 -109 143q-43 0 -100.5 -18.5t-122.5 -52.5v-795h-309z" />
<glyph unicode="i" horiz-adv-x="530" d="M94 1442q0 88 40 128t132 40t132 -41t40 -127t-40 -127t-132 -41t-132 40t-40 128zM111 0v1106h309v-1106h-309z" />
<glyph unicode="j" horiz-adv-x="530" d="M14 -393q49 135 74 294.5t25 356.5v66.5v148.5v190.5v194.5t-1 160.5t-1 87.5h309v-950q-2 -74 -16.5 -155t-39 -160t-59.5 -153.5t-76 -138.5zM94 1442q0 88 39 128t131 40t133 -41t41 -127t-41 -127t-133 -41q-90 0 -130 40t-40 128z" />
<glyph unicode="k" horiz-adv-x="1114" d="M111 0v1655h309v-977h98l246 428h336l-330 -514l-47 -19v-8l49 -18l363 -547h-336l-283 461h-96v-461h-309z" />
<glyph unicode="l" horiz-adv-x="534" d="M113 0v1655h309v-1655h-309z" />
<glyph unicode="m" horiz-adv-x="1744" d="M111 0v1106h254l18 -121h8q119 76 201 108.5t166 32.5q176 0 237 -143h13q113 78 194.5 110.5t167.5 32.5q129 0 198.5 -77.5t69.5 -221.5v-827h-303v721q0 143 -114 143q-39 0 -90.5 -17.5t-104.5 -49.5v-797h-303v721q0 143 -115 143q-39 0 -90 -17.5t-104 -51.5v-795 h-303z" />
<glyph unicode="n" horiz-adv-x="1167" d="M111 0v1106h260l18 -121h10q68 39 121 66.5t99.5 44t88.5 23.5t85 7q129 0 198.5 -77.5t69.5 -221.5v-827h-309v723q0 78 -28 110.5t-81 32.5q-47 0 -105.5 -19.5t-117.5 -51.5v-795h-309z" />
<glyph unicode="o" horiz-adv-x="1157" d="M63 553q0 283 131.5 428t383.5 145q254 0 384 -145t130 -428t-130 -428t-384 -145q-252 0 -383.5 145t-131.5 428zM375 553q0 -98 10 -162.5t33.5 -102.5t63 -54.5t96.5 -16.5t96 16.5t63.5 54.5t34.5 102.5t10 162.5t-10 162.5t-34.5 102.5t-63.5 54.5t-96 16.5 t-96.5 -16.5t-63 -54.5t-33.5 -102.5t-10 -162.5z" />
<glyph unicode="p" horiz-adv-x="1173" d="M111 -451v1557h276l19 -119h10q51 66 126.5 101.5t174.5 35.5q389 0 389 -538q0 -287 -135 -446.5t-408 -159.5q-68 0 -143 12v-443h-309zM420 213q63 -23 145 -23q63 0 106.5 17.5t70 59.5t39 112t12.5 174q0 100 -9.5 166.5t-31 106.5t-56 57.5t-86.5 17.5 q-90 0 -140 -68.5t-50 -238.5v-381z" />
<glyph unicode="q" horiz-adv-x="1169" d="M66 524q0 303 140 451.5t419 148.5q104 0 217.5 -13t218.5 -36v-1526h-305v568q-104 -135 -297 -135q-393 0 -393 542zM375 565q0 -102 9 -171.5t30.5 -111.5t58.5 -60.5t90 -18.5q96 0 142.5 70.5t46.5 238.5v383q-35 10 -71 14t-77 4q-66 0 -109.5 -16t-70.5 -56 t-38 -107.5t-11 -168.5z" />
<glyph unicode="r" horiz-adv-x="802" d="M111 0v1106h260l18 -158h12q20 20 55.5 45t78.5 49.5t88 47t86 34.5h73v-280h-118q-66 -10 -136.5 -39t-107.5 -60v-745h-309z" />
<glyph unicode="s" horiz-adv-x="931" d="M74 31v225q84 -25 175 -40t173 -15q160 0 160 108q0 53 -37 81t-115 42q-55 8 -116.5 20.5t-114 46t-87 99.5t-34.5 178q0 166 106.5 259t298.5 93q74 0 157 -10t185 -31l-2 -229q-102 23 -167.5 32t-118.5 9q-84 0 -126 -28.5t-42 -82.5q0 -59 42 -82.5t117 -37.5 q66 -10 128.5 -28.5t111.5 -55.5t79 -97.5t30 -154.5q0 -170 -115 -261t-330 -91q-82 0 -173 13t-185 38z" />
<glyph unicode="t" horiz-adv-x="800" d="M27 846v260h194l43 313l246 29v-342h246v-260h-244v-465q0 -90 33 -127t102 -37q51 0 111 19v-230q-91 -22 -197 -22q-178 0 -267 83t-89 242v537h-178z" />
<glyph unicode="u" horiz-adv-x="1165" d="M102 279v827h310v-731q0 -76 27.5 -109t88.5 -33q47 0 100.5 19.5t116.5 56.5v797h310v-1106h-260l-19 119h-8q-66 -39 -114 -65.5t-90 -43t-82 -23.5t-87 -7q-139 0 -216 78.5t-77 220.5z" />
<glyph unicode="v" horiz-adv-x="1124" d="M12 1083v23h324l182 -670l35 -174h20l35 174l185 670h319v-23l-367 -1083h-368z" />
<glyph unicode="w" horiz-adv-x="1570" d="M33 1098v8h289l114 -660l21 -135h22l23 135l141 660h287l141 -660l25 -135h20l21 135l114 660h289v-8l-246 -1098h-344l-137 625l-16 120h-23l-16 -120l-135 -625h-347z" />
<glyph unicode="x" horiz-adv-x="1118" d="M10 0v27l334 548l-319 512v19h327l164 -299l39 -78h16l37 78l160 299h328v-19l-320 -532l332 -528v-27h-324l-180 330l-39 88h-18l-37 -88l-174 -330h-326z" />
<glyph unicode="y" horiz-adv-x="1136" d="M8 1079v27h320l194 -629l37 -164h19l36 164l197 629h317v-27l-550 -1530l-302 56v18l134 383z" />
<glyph unicode="z" horiz-adv-x="964" d="M61 0v207l463 647v14h-446v238h807v-207l-453 -645v-16h473v-238h-844z" />
<glyph unicode="{" horiz-adv-x="688" d="M45 614v230q74 0 104.5 49t30.5 143v494q0 137 52.5 192.5t175.5 55.5q20 0 54 -1t69.5 -3t64.5 -3.5t39 -3.5v-192h-107q-53 0 -76.5 -21.5t-23.5 -72.5v-508q0 -94 -43 -162t-113 -84q70 -14 113 -79.5t43 -160.5v-512q0 -51 23.5 -72.5t76.5 -21.5h107v-192 q-10 -2 -39 -4t-63.5 -3t-69.5 -2.5t-53 -1.5q-123 0 -176.5 55.5t-53.5 192.5v498q0 94 -30.5 142t-104.5 48z" />
<glyph unicode="|" horiz-adv-x="569" d="M139 -451v2106h291v-2106h-291z" />
<glyph unicode="}" horiz-adv-x="688" d="M53 -119h107q53 0 75.5 21.5t22.5 72.5v512q0 94 43 160t115 80q-72 16 -115 84t-43 162v508q0 51 -22.5 72.5t-75.5 21.5h-107v192q8 2 37 3.5t64.5 3.5t70.5 3t54 1q123 0 175 -55.5t52 -192.5v-494q0 -94 31.5 -143t105.5 -49v-230q-74 0 -105.5 -48t-31.5 -142v-498 q0 -137 -52.5 -192.5t-174.5 -55.5q-18 0 -53.5 1.5t-71 2.5t-64.5 3t-37 4v192z" />
<glyph unicode="~" horiz-adv-x="1247" d="M74 555q59 78 105 129t86 81t78 42t81 12q59 0 107.5 -23.5t92.5 -52t86 -52t89 -23.5q113 0 194 151l181 -106q-29 -45 -64 -94.5t-78 -91.5t-94 -68.5t-111 -26.5q-61 0 -110 23.5t-93 53.5t-85 53.5t-86 23.5q-53 0 -101.5 -37t-101.5 -115z" />
<glyph unicode="&#xa1;" horiz-adv-x="524" d="M94 954q0 78 45 120t125 42q82 0 127 -42t45 -120t-45 -119.5t-127 -41.5q-80 0 -125 42t-45 119zM102 -389l66 983v22h192v-22l64 -983v-21h-322v21z" />
<glyph unicode="&#xa2;" horiz-adv-x="942" d="M66 553q0 260 104 397t315 166v236h195v-232q45 -4 88 -10t80 -16v-244q-59 10 -113.5 16t-101.5 6q-137 0 -195.5 -72.5t-58.5 -244.5t58.5 -248t193.5 -76q59 0 110.5 5.5t106.5 17.5v-240q-70 -23 -168 -28v-232h-195v236q-211 27 -315 164t-104 399z" />
<glyph unicode="&#xa3;" horiz-adv-x="1259" d="M76 0v270h248v371h-248v240h248v196q0 233 115.5 344t367.5 111q86 0 176 -12.5t207 -40.5l-14 -250q-78 20 -165 30.5t-151 10.5q-123 0 -171 -43t-48 -154v-192h369v-240h-369v-375h520v-266h-1085z" />
<glyph unicode="&#xa4;" horiz-adv-x="1214" d="M78 346l112 111l103 75q-66 90 -66 226q0 131 66 225l-103 76l-112 110l117 119l110 -112l78 -107q96 61 223 61t223 -61l78 107l113 112l117 -119l-113 -110l-106 -78q66 -94 65 -223q0 -131 -63 -223l104 -78l113 -111l-117 -119l-113 113l-78 106q-92 -63 -223 -63 q-66 0 -123 16.5t-102 44.5l-76 -104l-110 -113zM418 758q0 -102 51 -156.5t137 -54.5t136.5 53t50.5 158q0 104 -50.5 156.5t-136.5 52.5t-137 -53.5t-51 -155.5z" />
<glyph unicode="&#xa5;" horiz-adv-x="1452" d="M45 1516h350l283 -594l41 -123h18l43 123l283 594h346l-416 -801h244v-211h-350v-150h350v-211h-350v-143h-316v143h-368v211h368v150h-368v211h260z" />
<glyph unicode="&#xa6;" horiz-adv-x="563" d="M137 418h289v-869h-289v869zM137 786v869h289v-869h-289z" />
<glyph unicode="&#xa7;" horiz-adv-x="983" d="M94 31v223q84 -25 175 -39t173 -14q160 0 160 108q0 53 -37 82t-114 41q-55 8 -117 21.5t-114 47.5t-87 98.5t-35 176.5q0 66 17.5 118t48.5 95q-29 35 -47.5 86t-18.5 127q0 166 107.5 259t300.5 93q74 0 160 -10t186 -31l-8 -229q-102 23 -167 32t-120 9 q-168 0 -168 -113q0 -59 42 -82.5t118 -35.5q66 -12 128 -29.5t111.5 -54.5t79 -97.5t29.5 -154.5q0 -133 -72 -217q35 -37 53.5 -87.5t18.5 -121.5q0 -170 -114.5 -261t-329.5 -91q-80 0 -171.5 13t-187.5 38zM379 793q0 -63 29.5 -90t83.5 -44l96 -28q25 37 24 96 q0 57 -25.5 85t-74.5 46q-16 6 -43 13.5t-45 15.5q-45 -39 -45 -94z" />
<glyph unicode="&#xa8;" horiz-adv-x="991" d="M92 1421q0 78 37 114t119 36q158 0 158 -150q0 -80 -39 -116.5t-119 -36.5q-82 0 -119 36.5t-37 116.5zM573 1421q0 78 37 114t119 36q156 0 156 -150q0 -80 -38 -116.5t-118 -36.5q-82 0 -119 36.5t-37 116.5z" />
<glyph unicode="&#xa9;" horiz-adv-x="1662" d="M72 758q0 174 54 317.5t153.5 245.5t239.5 158.5t312 56.5t312.5 -56.5t240 -158.5t153.5 -245.5t54 -317.5t-54 -317.5t-153.5 -246t-240 -158.5t-312.5 -56t-312 56t-239.5 158.5t-153.5 246t-54 317.5zM246 758q0 -139 40 -253t115.5 -195t184 -125t245.5 -44t246 44 t184.5 125t115.5 194.5t40 253.5q0 139 -40 252.5t-115.5 194.5t-184 125t-246.5 44q-137 0 -245.5 -44t-184 -125t-115.5 -194.5t-40 -252.5zM477 754q0 211 98.5 316.5t286.5 105.5q47 0 96.5 -6.5t88.5 -16.5v-170q-98 18 -162 18q-113 0 -158 -58t-45 -187t45 -188.5 t156 -59.5q29 0 71.5 4t94.5 14v-168q-39 -10 -88.5 -16t-98.5 -6q-188 0 -286.5 103.5t-98.5 314.5z" />
<glyph unicode="&#xaa;" horiz-adv-x="874" d="M59 950q0 111 74 171.5t215 68.5l180 10v14q0 45 -5 72t-19.5 41t-40 19.5t-68.5 5.5q-51 0 -117.5 -5.5t-136.5 -15.5l-16 166q160 31 299 31q186 0 268 -60.5t82 -193.5v-553h-209l-12 96h-8q-53 -49 -118.5 -76.5t-131.5 -27.5q-106 0 -171 64.5t-65 172.5zM307 969 q0 -86 86 -86q57 0 135 49v135l-96 -8q-72 -6 -98.5 -25.5t-26.5 -64.5z" />
<glyph unicode="&#xab;" horiz-adv-x="1230" d="M55 549v8l252 487h311l-251 -487v-8l251 -488h-311zM608 549v8l252 487h311l-251 -487v-8l251 -488h-311z" />
<glyph unicode="&#xac;" horiz-adv-x="1591" d="M86 645v250h1391v-688h-303v438h-1088z" />
<glyph unicode="&#xad;" horiz-adv-x="874" d="M100 459v229h672v-229h-672z" />
<glyph unicode="&#xae;" horiz-adv-x="1411" d="M78 915q0 137 45 253t128 198t198.5 128t255.5 46q141 0 256.5 -46t198.5 -128t128 -197.5t45 -253.5q0 -139 -45 -253.5t-128 -196.5t-198.5 -128t-256.5 -46q-139 0 -255 46t-199 128t-128 196.5t-45 253.5zM219 915q0 -111 34 -200.5t97.5 -154t153.5 -100.5t201 -36 t200.5 36t153 100.5t98.5 154.5t35 200q0 111 -35 201t-98.5 155.5t-153.5 101.5t-200 36q-111 0 -201 -36t-153.5 -101.5t-97.5 -155.5t-34 -201zM481 604v649q104 12 199 13q287 0 287 -211q0 -72 -32 -120t-93 -69l-2 -6l143 -256h-141l-119 225h-107v-225h-135zM616 936 h66q80 0 112.5 26.5t32.5 90.5q0 53 -29.5 81.5t-105.5 28.5q-8 0 -35.5 -1t-40.5 -1v-225z" />
<glyph unicode="&#xaf;" horiz-adv-x="905" d="M100 1294v197h688v-197h-688z" />
<glyph unicode="&#xb0;" horiz-adv-x="880" d="M57 1147q0 84 28 154.5t79 123t121.5 81t154.5 28.5t155 -28.5t121 -81t78.5 -123t28.5 -154.5t-28.5 -154.5t-78.5 -122t-121 -80t-155 -28.5t-154.5 28.5t-121.5 80t-79 122t-28 154.5zM236 1147q0 -100 51 -159.5t153 -59.5t152.5 59.5t50.5 159.5t-50 160.5 t-153 60.5q-102 0 -153 -60.5t-51 -160.5z" />
<glyph unicode="&#xb1;" horiz-adv-x="1081" d="M102 764v215h330v330h215v-330h330v-215h-330v-313h-215v313h-330zM104 117v215h875v-215h-875z" />
<glyph unicode="&#xb2;" horiz-adv-x="860" d="M55 614v189q0 68 16.5 123t52.5 105t93 95t139 91q98 55 135 97t37 93q0 117 -178 117q-53 0 -113.5 -8.5t-130.5 -24.5l-24 213q190 43 330 43q383 0 383 -313q0 -119 -59.5 -203t-180.5 -152q-104 -66 -152.5 -116t-48.5 -97v-32h437v-220h-736z" />
<glyph unicode="&#xb3;" horiz-adv-x="811" d="M68 1722q55 12 120.5 19.5t126.5 7.5q410 0 410 -295q0 -98 -43 -163.5t-123 -96.5q193 -66 193 -270q0 -156 -111.5 -240t-316.5 -84q-141 0 -254 23v225h18q35 -10 89 -16.5t99 -6.5q117 0 165 31t48 96q0 72 -50 102.5t-179 30.5h-76v193h76q106 0 152.5 30.5 t46.5 94.5q0 61 -40 91t-132 30q-39 0 -89.5 -5.5t-109.5 -15.5h-16z" />
<glyph unicode="&#xb4;" horiz-adv-x="546" d="M61 1266l138 383h315l-231 -402z" />
<glyph unicode="&#xb5;" horiz-adv-x="1232" d="M137 -451v1557h309v-746q0 -66 31 -97.5t86 -31.5q47 0 98.5 18.5t116.5 53.5v803h309v-1106h-260l-18 119h-8q-61 -39 -108.5 -64.5t-87.5 -42t-78 -23.5t-81 -9v-431h-309z" />
<glyph unicode="&#xb6;" horiz-adv-x="1181" d="M57 1034q0 137 31 231.5t87 152t136 83t178 25.5q51 0 109.5 -5t118.5 -16v-1505h-146v545q-23 -2 -41 -2h-41q-98 0 -178 25.5t-136 83t-87 151.5t-31 231zM831 0v1505h189v-1505h-189z" />
<glyph unicode="&#xb7;" horiz-adv-x="512" d="M82 758q0 90 41 130t133 40q90 0 131 -40t41 -130q0 -88 -41 -129t-131 -41q-92 0 -133 40t-41 130z" />
<glyph unicode="&#xb8;" horiz-adv-x="569" d="M57 -242q37 -10 74 -14t59 -4q90 0 91 78q0 45 -33 112.5t-94 145.5h194q76 -98 106.5 -165t30.5 -140q0 -104 -64 -163t-183 -59q-37 0 -83 6.5t-98 18.5v184z" />
<glyph unicode="&#xb9;" horiz-adv-x="681" d="M18 1499l5 37l339 197h197v-1119h-266v838l-205 -78h-29z" />
<glyph unicode="&#xba;" horiz-adv-x="913" d="M63 1118q0 209 102.5 310.5t291.5 101.5q190 0 291.5 -101.5t101.5 -310.5t-101.5 -310t-291.5 -101q-188 0 -291 101t-103 310zM309 1118q0 -72 6.5 -116t22.5 -70.5t45 -35.5t74 -9q43 0 71.5 9t46 35.5t23.5 71t6 115.5q0 70 -6 115t-23.5 71.5t-46 37t-71.5 10.5 q-45 0 -74 -10.5t-45 -37t-22.5 -71.5t-6.5 -115z" />
<glyph unicode="&#xbb;" horiz-adv-x="1230" d="M61 61l252 488v8l-252 487h312l252 -487v-8l-252 -488h-312zM614 61l252 488v8l-252 487h312l252 -487v-8l-252 -488h-312z" />
<glyph unicode="&#xbc;" horiz-adv-x="2101" d="M45 1294l4 37l340 197h197v-1118h-267v837l-204 -78h-29zM547 0l590 1516h256l-590 -1516h-256zM1180 387l356 721l25 14l229 -18l16 -35l-364 -645h229l74 307h172v-307h129v-197h-129v-227h-268v227h-437z" />
<glyph unicode="&#xbd;" horiz-adv-x="2134" d="M45 1294l4 37l340 197h197v-1118h-267v837l-204 -78h-29zM547 0l590 1516h256l-590 -1516h-256zM1309 0v188q0 68 16 122.5t51 103.5t92.5 95t141.5 93q51 29 83.5 52.5t52 46t28 44t8.5 48.5q0 117 -178 116q-57 0 -123 -8t-121 -24l-25 213q199 43 330 43 q383 0 383 -314q0 -117 -55.5 -198.5t-184.5 -155.5q-106 -68 -153 -117t-47 -96v-33h436v-219h-735z" />
<glyph unicode="&#xbe;" horiz-adv-x="2140" d="M90 1518q55 12 120.5 19t127.5 7q410 0 410 -295q0 -98 -43 -163.5t-123 -96.5q193 -66 192 -270q0 -156 -111.5 -240t-316.5 -84q-141 0 -254 23v225h19q35 -10 89 -16t99 -6q117 0 165 30.5t48 96.5q0 72 -50 102.5t-179 30.5h-76v192h76q106 0 152 31t46 94 q0 61 -40 91t-132 30q-39 0 -89 -5t-109 -16h-17zM635 0l590 1516h256l-590 -1516h-256zM1223 387l356 721l25 14l229 -18l16 -35l-364 -645h229l74 307h172v-307h129v-197h-129v-227h-268v227h-437z" />
<glyph unicode="&#xbf;" horiz-adv-x="886" d="M49 -20q0 90 28.5 160.5t79 121.5t119 84t148.5 49l12 232v32h201v-30l25 -371q-68 -16 -126.5 -35.5t-100.5 -48.5t-65.5 -70t-23.5 -96q0 -104 63.5 -147t161.5 -43q59 0 130 11t120 26l15 -234q-78 -23 -158 -34t-166 -11q-104 0 -189 24.5t-145.5 75t-94.5 126 t-34 178.5zM360 958q0 78 45 121t127 43q80 0 125 -43t45 -121t-45 -119.5t-125 -41.5q-82 0 -127 42t-45 119z" />
<glyph unicode="&#xc0;" d="M0 0v14l430 1502h473l430 -1502v-14h-301l-108 377h-516l-107 -377h-301zM309 1987h320l137 -340l-223 -23zM473 629h385l-115 405l-65 248h-25l-65 -248z" />
<glyph unicode="&#xc1;" d="M0 0v14l430 1502h473l430 -1502v-14h-301l-108 377h-516l-107 -377h-301zM473 629h385l-115 405l-65 248h-25l-65 -248zM543 1640l139 347h317l-231 -363z" />
<glyph unicode="&#xc2;" d="M0 0v14l430 1502h473l430 -1502v-14h-301l-108 377h-516l-107 -377h-301zM322 1634v211l348 152l346 -152v-211l-346 150zM473 629h385l-115 405l-65 248h-25l-65 -248z" />
<glyph unicode="&#xc3;" d="M0 0v14l430 1502h473l430 -1502v-14h-301l-108 377h-516l-107 -377h-301zM274 1729q59 111 135 169t148 58q43 0 85 -13.5t82 -29t81 -27.5t84 -12q41 0 79 18.5t81 61.5l49 -51q-55 -113 -131 -170.5t-152 -57.5q-43 0 -84 12.5t-82 28t-81 27.5t-83 12 q-41 0 -80.5 -17.5t-82.5 -58.5zM473 629h385l-115 405l-65 248h-25l-65 -248z" />
<glyph unicode="&#xc4;" d="M0 0v14l430 1502h473l430 -1502v-14h-301l-108 377h-516l-107 -377h-301zM236 1815q0 90 39.5 128.5t132.5 38.5q90 0 132 -39.5t42 -127.5q0 -90 -42 -130t-132 -40q-92 0 -132 39.5t-40 130.5zM473 629h385l-115 405l-65 248h-25l-65 -248zM754 1815q0 90 40 128.5 t132 38.5q90 0 132 -39.5t42 -127.5q0 -90 -42 -130t-132 -40q-92 0 -132 39.5t-40 130.5z" />
<glyph unicode="&#xc5;" d="M0 0v14l430 1502h473l430 -1502v-14h-301l-108 377h-516l-107 -377h-301zM420 1784q0 49 17.5 91t50 72.5t77.5 48t99 17.5q55 0 100 -17.5t76.5 -48t50 -72.5t18.5 -91t-18.5 -91t-50 -73t-76.5 -48.5t-100 -17.5q-109 0 -176.5 66t-67.5 164zM473 629h385l-115 405 l-65 248h-25l-65 -248zM545 1784q0 -59 26.5 -88t92.5 -29t93 28.5t27 88.5q0 59 -27.5 88t-92.5 29q-66 0 -92.5 -29t-26.5 -88z" />
<glyph unicode="&#xc6;" horiz-adv-x="1779" d="M-4 0v14l506 1502h1184v-261h-566l23 -364h510v-260h-494l23 -371h526v-260h-836l-16 371h-420l-123 -371h-317zM524 635h322l-27 643h-80z" />
<glyph unicode="&#xc7;" horiz-adv-x="1095" d="M72 756q0 401 163.5 590.5t493.5 189.5q135 0 307 -31v-254q-78 12 -142.5 18.5t-119.5 6.5q-104 0 -176 -24.5t-117 -84t-64.5 -160t-19.5 -251.5q0 -150 19.5 -249t64.5 -158.5t116 -84t173 -24.5q59 0 134 8t132 20v-250q-49 -16 -118.5 -25t-145.5 -13 q37 -59 52.5 -107.5t15.5 -101.5q0 -104 -64.5 -163t-183.5 -59q-37 0 -83 6.5t-97 18.5v184q37 -10 73.5 -14t59.5 -4q90 0 90 78q0 68 -68 176q-252 45 -373.5 230.5t-121.5 531.5z" />
<glyph unicode="&#xc8;" horiz-adv-x="1179" d="M131 0v1516h963v-261h-648v-364h580v-258h-580v-373h666v-260h-981zM279 1987h319l137 -340l-223 -23z" />
<glyph unicode="&#xc9;" horiz-adv-x="1179" d="M131 0v1516h963v-261h-648v-364h580v-258h-580v-373h666v-260h-981zM489 1640l140 347h317l-231 -363z" />
<glyph unicode="&#xca;" horiz-adv-x="1179" d="M131 0v1516h963v-261h-648v-364h580v-258h-580v-373h666v-260h-981zM279 1634v211l348 152l346 -152v-211l-346 150z" />
<glyph unicode="&#xcb;" horiz-adv-x="1179" d="M131 0v1516h963v-261h-648v-364h580v-258h-580v-373h666v-260h-981zM190 1815q0 90 40 128.5t132 38.5q90 0 132.5 -39.5t42.5 -127.5q0 -90 -42.5 -130t-132.5 -40q-92 0 -132 39.5t-40 130.5zM709 1815q0 90 39.5 128.5t132.5 38.5q90 0 132 -39.5t42 -127.5 q0 -90 -42 -130t-132 -40q-92 0 -132 39.5t-40 130.5z" />
<glyph unicode="&#xcc;" horiz-adv-x="577" d="M-51 1987h319l138 -340l-224 -23zM131 0v1516h315v-1516h-315z" />
<glyph unicode="&#xcd;" horiz-adv-x="577" d="M131 0v1516h315v-1516h-315zM166 1640l139 347h318l-232 -363z" />
<glyph unicode="&#xce;" horiz-adv-x="577" d="M-55 1634v211l348 152l346 -152v-211l-346 150zM131 0v1516h315v-1516h-315z" />
<glyph unicode="&#xcf;" horiz-adv-x="577" d="M-139 1815q0 90 40 128.5t132 38.5q90 0 132 -39.5t42 -127.5q0 -90 -42 -130t-132 -40q-92 0 -132 39.5t-40 130.5zM131 0v1516h315v-1516h-315zM379 1815q0 90 40 128.5t132 38.5q90 0 132 -39.5t42 -127.5q0 -90 -42 -130t-132 -40q-92 0 -132 39.5t-40 130.5z" />
<glyph unicode="&#xd0;" horiz-adv-x="1425" d="M0 641v242h174v628q135 10 235.5 16.5t180.5 6.5q205 0 349 -44t236.5 -138.5t135.5 -241.5t43 -354q0 -209 -45 -357.5t-141.5 -243t-249 -138.5t-369.5 -44q-176 0 -375 25v643h-174zM485 242q53 -6 94 -9.5t80 -3.5q102 0 173 27t114 88.5t62.5 162.5t19.5 251 q0 147 -19.5 247.5t-64.5 162t-118.5 88t-182.5 26.5q-78 0 -158 -12v-387h224v-242h-224v-399z" />
<glyph unicode="&#xd1;" horiz-adv-x="1474" d="M131 0v1516h262l561 -826l95 -168h16v994h281v-1516h-263l-559 823l-96 172h-18v-995h-279zM334 1729q59 111 135 169t147 58q43 0 85 -13.5t82 -29t81 -27.5t84 -12q41 0 79 18.5t81 61.5l49 -51q-55 -113 -131 -170.5t-152 -57.5q-43 0 -83.5 12.5t-81.5 28t-81 27.5 t-83 12q-41 0 -81 -17.5t-83 -58.5z" />
<glyph unicode="&#xd2;" horiz-adv-x="1437" d="M72 756q0 780 647 780t647 -780q0 -776 -647 -776t-647 776zM362 1987h320l137 -340l-223 -23zM395 756q0 -141 17.5 -239.5t56.5 -160t100.5 -89t149.5 -27.5t149.5 26.5t100.5 88t56 159.5t17 242q0 143 -17 242.5t-56 162t-100.5 90t-149.5 27.5t-149.5 -27.5 t-100.5 -90t-56.5 -162t-17.5 -242.5z" />
<glyph unicode="&#xd3;" horiz-adv-x="1437" d="M72 756q0 780 647 780t647 -780q0 -776 -647 -776t-647 776zM395 756q0 -141 17.5 -239.5t56.5 -160t100.5 -89t149.5 -27.5t149.5 26.5t100.5 88t56 159.5t17 242q0 143 -17 242.5t-56 162t-100.5 90t-149.5 27.5t-149.5 -27.5t-100.5 -90t-56.5 -162t-17.5 -242.5z M594 1640l139 347h318l-232 -363z" />
<glyph unicode="&#xd4;" horiz-adv-x="1437" d="M72 756q0 780 647 780t647 -780q0 -776 -647 -776t-647 776zM371 1634v211l348 152l346 -152v-211l-346 150zM395 756q0 -141 17.5 -239.5t56.5 -160t100.5 -89t149.5 -27.5t149.5 26.5t100.5 88t56 159.5t17 242q0 143 -17 242.5t-56 162t-100.5 90t-149.5 27.5 t-149.5 -27.5t-100.5 -90t-56.5 -162t-17.5 -242.5z" />
<glyph unicode="&#xd5;" horiz-adv-x="1437" d="M72 756q0 780 647 780t647 -780q0 -776 -647 -776t-647 776zM326 1729q59 111 135 169t147 58q43 0 85 -13.5t82 -29t81 -27.5t84 -12q41 0 79 18.5t81 61.5l49 -51q-55 -113 -131 -170.5t-152 -57.5q-43 0 -84 12.5t-82 28t-80.5 27.5t-82.5 12q-41 0 -81 -17.5 t-83 -58.5zM395 756q0 -141 17.5 -239.5t56.5 -160t100.5 -89t149.5 -27.5t149.5 26.5t100.5 88t56 159.5t17 242q0 143 -17 242.5t-56 162t-100.5 90t-149.5 27.5t-149.5 -27.5t-100.5 -90t-56.5 -162t-17.5 -242.5z" />
<glyph unicode="&#xd6;" horiz-adv-x="1437" d="M72 756q0 780 647 780t647 -780q0 -776 -647 -776t-647 776zM283 1815q0 90 39.5 128.5t132.5 38.5q90 0 132 -39.5t42 -127.5q0 -90 -42 -130t-132 -40q-92 0 -132 39.5t-40 130.5zM395 756q0 -141 17.5 -239.5t56.5 -160t100.5 -89t149.5 -27.5t149.5 26.5t100.5 88 t56 159.5t17 242q0 143 -17 242.5t-56 162t-100.5 90t-149.5 27.5t-149.5 -27.5t-100.5 -90t-56.5 -162t-17.5 -242.5zM801 1815q0 90 40 128.5t132 38.5q90 0 132 -39.5t42 -127.5q0 -90 -42 -130t-132 -40q-92 0 -132 39.5t-40 130.5z" />
<glyph unicode="&#xd7;" horiz-adv-x="999" d="M74 483l274 275l-274 276l151 152l275 -277l274 277l154 -152l-277 -276l277 -275l-152 -151l-276 274l-275 -274z" />
<glyph unicode="&#xd8;" horiz-adv-x="1445" d="M20 0l177 229q-121 193 -121 527q0 780 647 780q244 0 399 -113l72 93h233l-178 -232q121 -193 121 -528q0 -776 -647 -776q-244 0 -397 110l-70 -90h-236zM399 756q0 -72 3.5 -132.5t13.5 -111.5l530 684q-74 82 -223 82q-88 0 -149.5 -27.5t-100.5 -90t-56.5 -162 t-17.5 -242.5zM502 317q39 -41 93 -59t128 -18q88 0 150.5 26.5t101.5 88t56.5 159.5t17.5 242q0 143 -19 245z" />
<glyph unicode="&#xd9;" horiz-adv-x="1441" d="M119 596v920h315v-910q0 -193 66.5 -277.5t220.5 -84.5t220.5 84t66.5 278v910h315v-920q0 -158 -31.5 -273.5t-103.5 -192.5t-186.5 -113.5t-280.5 -36.5t-280.5 37.5t-186.5 113.5t-103.5 191.5t-31.5 273.5zM360 1987h320l137 -340l-223 -23z" />
<glyph unicode="&#xda;" horiz-adv-x="1441" d="M119 596v920h315v-910q0 -193 66.5 -277.5t220.5 -84.5t220.5 84t66.5 278v910h315v-920q0 -158 -31.5 -273.5t-103.5 -192.5t-186.5 -113.5t-280.5 -36.5t-280.5 37.5t-186.5 113.5t-103.5 191.5t-31.5 273.5zM580 1640l139 347h317l-231 -363z" />
<glyph unicode="&#xdb;" horiz-adv-x="1441" d="M119 596v920h315v-910q0 -193 66.5 -277.5t220.5 -84.5t220.5 84t66.5 278v910h315v-920q0 -158 -31.5 -273.5t-103.5 -192.5t-186.5 -113.5t-280.5 -36.5t-280.5 37.5t-186.5 113.5t-103.5 191.5t-31.5 273.5zM362 1634v211l349 152l346 -152v-211l-346 150z" />
<glyph unicode="&#xdc;" horiz-adv-x="1441" d="M119 596v920h315v-910q0 -193 66.5 -277.5t220.5 -84.5t220.5 84t66.5 278v910h315v-920q0 -158 -31.5 -273.5t-103.5 -192.5t-186.5 -113.5t-280.5 -36.5t-280.5 37.5t-186.5 113.5t-103.5 191.5t-31.5 273.5zM279 1815q0 90 39.5 128.5t132.5 38.5q90 0 132 -39.5 t42 -127.5q0 -90 -42 -130t-132 -40q-92 0 -132 39.5t-40 130.5zM797 1815q0 90 40 128.5t132 38.5q90 0 132 -39.5t42 -127.5q0 -90 -42 -130t-132 -40q-92 0 -132 39.5t-40 130.5z" />
<glyph unicode="&#xdd;" horiz-adv-x="1337" d="M-14 1516h350l282 -594l41 -123h19l43 123l283 594h346l-523 -1006v-510h-315v506zM549 1640l139 347h318l-232 -363z" />
<glyph unicode="&#xde;" horiz-adv-x="1267" d="M131 0v1516h315v-232q23 2 44.5 2h44.5q360 0 523 -127t163 -407q0 -276 -161 -402.5t-515 -126.5h-99v-223h-315zM446 485q6 -2 24.5 -3t40 -2t40.5 -1h27q92 0 153.5 13.5t98 46t53 84t16.5 129.5q0 76 -15.5 129t-53 84.5t-100 46t-155.5 14.5h-25.5t-37.5 -1 t-38.5 -2t-27.5 -3v-535z" />
<glyph unicode="&#xdf;" horiz-adv-x="1386" d="M111 0v1178q0 252 133 368.5t413 116.5q283 0 416 -116.5t133 -368.5v-279h-174q-92 0 -142 -28.5t-50 -82.5q0 -59 42 -82.5t119 -37.5q66 -10 128.5 -28.5t111.5 -55.5t79 -97.5t30 -154.5q0 -170 -115 -261t-330 -91q-82 0 -173 13t-187 38v223q86 -25 177 -39 t173 -14q160 0 160 108q0 53 -37 82t-115 41q-55 8 -116.5 21.5t-113.5 47.5t-87 98.5t-35 176.5q0 143 92 235.5t254 110.5v56q0 133 -54.5 189t-183.5 56t-184 -55t-55 -190v-1178h-309z" />
<glyph unicode="&#xe0;" horiz-adv-x="1075" d="M49 309q0 319 404 346l211 15v22q0 59 -8.5 98t-31 63t-61.5 33t-100 9q-29 0 -69 -3t-83 -7t-86 -10.5t-75 -12.5l-21 221q98 16 195.5 27.5t185.5 11.5q242 0 351.5 -87t109.5 -273v-762h-254l-25 133h-18q-63 -66 -145.5 -104.5t-174.5 -38.5q-141 0 -223 86t-82 233z M199 1651h319l137 -381l-221 -21zM358 340q0 -127 117 -127q47 0 98.5 23.5t90.5 52.5v203l-136 -13q-94 -10 -132 -41.5t-38 -97.5z" />
<glyph unicode="&#xe1;" horiz-adv-x="1075" d="M49 309q0 319 404 346l211 15v22q0 59 -8.5 98t-31 63t-61.5 33t-100 9q-29 0 -69 -3t-83 -7t-86 -10.5t-75 -12.5l-21 221q98 16 195.5 27.5t185.5 11.5q242 0 351.5 -87t109.5 -273v-762h-254l-25 133h-18q-63 -66 -145.5 -104.5t-174.5 -38.5q-141 0 -223 86t-82 233z M358 340q0 -127 117 -127q47 0 98.5 23.5t90.5 52.5v203l-136 -13q-94 -10 -132 -41.5t-38 -97.5zM430 1266l137 383h316l-232 -402z" />
<glyph unicode="&#xe2;" horiz-adv-x="1075" d="M49 309q0 319 404 346l211 15v22q0 59 -8.5 98t-31 63t-61.5 33t-100 9q-29 0 -69 -3t-83 -7t-86 -10.5t-75 -12.5l-21 221q98 16 195.5 27.5t185.5 11.5q242 0 351.5 -87t109.5 -273v-762h-254l-25 133h-18q-63 -66 -145.5 -104.5t-174.5 -38.5q-141 0 -223 86t-82 233z M209 1260v213l348 149l348 -149v-213l-348 149zM358 340q0 -127 117 -127q47 0 98.5 23.5t90.5 52.5v203l-136 -13q-94 -10 -132 -41.5t-38 -97.5z" />
<glyph unicode="&#xe3;" horiz-adv-x="1075" d="M49 309q0 319 404 346l211 15v22q0 59 -8.5 98t-31 63t-61.5 33t-100 9q-29 0 -69 -3t-83 -7t-86 -10.5t-75 -12.5l-21 221q98 16 195.5 27.5t185.5 11.5q242 0 351.5 -87t109.5 -273v-762h-254l-25 133h-18q-63 -66 -145.5 -104.5t-174.5 -38.5q-141 0 -223 86t-82 233z M145 1354q59 104 135 157.5t148 53.5q45 0 86 -16.5t81 -35t81 -35t84 -16.5q39 0 73.5 18.5t75.5 65.5l62 -71q-57 -109 -133 -160t-150 -51q-43 0 -84 15t-82 34.5t-82 35t-82 15.5t-76.5 -18.5t-76.5 -61.5zM358 340q0 -127 117 -127q47 0 98.5 23.5t90.5 52.5v203 l-136 -13q-94 -10 -132 -41.5t-38 -97.5z" />
<glyph unicode="&#xe4;" horiz-adv-x="1075" d="M49 309q0 319 404 346l211 15v22q0 59 -8.5 98t-31 63t-61.5 33t-100 9q-29 0 -69 -3t-83 -7t-86 -10.5t-75 -12.5l-21 221q98 16 195.5 27.5t185.5 11.5q242 0 351.5 -87t109.5 -273v-762h-254l-25 133h-18q-63 -66 -145.5 -104.5t-174.5 -38.5q-141 0 -223 86t-82 233z M150 1421q0 78 36.5 114t118.5 36q158 0 158 -150q0 -80 -39 -116.5t-119 -36.5q-82 0 -118.5 36.5t-36.5 116.5zM358 340q0 -127 117 -127q47 0 98.5 23.5t90.5 52.5v203l-136 -13q-94 -10 -132 -41.5t-38 -97.5zM631 1421q0 78 37 114t118 36q156 0 156 -150 q0 -80 -38 -116.5t-118 -36.5q-82 0 -118.5 36.5t-36.5 116.5z" />
<glyph unicode="&#xe5;" horiz-adv-x="1075" d="M49 309q0 319 404 346l211 15v22q0 59 -8.5 98t-31 63t-61.5 33t-100 9q-29 0 -69 -3t-83 -7t-86 -10.5t-75 -12.5l-21 221q98 16 195.5 27.5t185.5 11.5q242 0 351.5 -87t109.5 -273v-762h-254l-25 133h-18q-63 -66 -145.5 -104.5t-174.5 -38.5q-141 0 -223 86t-82 233z M289 1446q0 102 68.5 165.5t181.5 63.5q115 0 183.5 -63.5t68.5 -165.5q0 -100 -69.5 -163.5t-182.5 -63.5q-111 0 -180.5 63.5t-69.5 163.5zM358 340q0 -127 117 -127q47 0 98.5 23.5t90.5 52.5v203l-136 -13q-94 -10 -132 -41.5t-38 -97.5zM426 1446q0 -53 30 -83t83 -30 q55 0 84.5 31t29.5 82q0 53 -29.5 84t-84.5 31t-84 -31t-29 -84z" />
<glyph unicode="&#xe6;" horiz-adv-x="1671" d="M49 309q0 319 404 346l211 15v61q0 96 -46.5 130t-162.5 34q-29 0 -69 -3t-82 -7t-83 -10.5t-71 -12.5l-21 221q111 18 205 28.5t180 10.5q117 0 193.5 -34.5t117.5 -104.5h17q115 139 338 139q426 0 426 -508q0 -57 -2 -91t-11 -68h-618q8 -131 59 -186.5t168 -55.5 q70 0 163 14.5t191 40.5l11 -225q-80 -29 -185.5 -46t-199.5 -17q-135 0 -229.5 44t-153.5 136l-17 2q-123 -90 -226 -131t-204 -41q-141 0 -222 86t-81 233zM358 340q0 -129 117 -129q43 0 93 23.5t104 60.5q-2 6 -3 34.5t-2 60.5t-2 61.5t-1 40.5l-134 -13 q-94 -10 -133 -41.5t-39 -97.5zM975 635h358q-4 141 -41 200.5t-123 59.5q-94 0 -140 -62.5t-54 -197.5z" />
<glyph unicode="&#xe7;" horiz-adv-x="917" d="M66 553q0 293 133 432t401 139q66 0 130.5 -7t117.5 -23v-244q-59 10 -113.5 16t-101.5 6q-137 0 -195.5 -72.5t-58.5 -244.5t58.5 -248t193.5 -76q59 0 110.5 5.5t106.5 17.5v-240q-41 -12 -97.5 -20t-115.5 -12q37 -59 53.5 -108.5t16.5 -102.5q0 -104 -64.5 -163 t-183.5 -59q-37 0 -83 6.5t-98 18.5v184q37 -10 74 -14t60 -4q90 0 90 78q0 72 -72 180q-182 41 -272 176t-90 379z" />
<glyph unicode="&#xe8;" horiz-adv-x="1067" d="M66 541q0 289 128 436t384 147q426 0 426 -508q0 -55 -2.5 -91t-10.5 -70h-616q6 -70 20.5 -116t41 -73.5t66.5 -39t97 -11.5q72 0 166 15.5t188 41.5l11 -227q-80 -29 -185.5 -46t-201.5 -17q-256 0 -384 141t-128 418zM193 1651h319l137 -381l-221 -21zM375 639h354 q-4 141 -41 200.5t-123 59.5q-92 0 -136 -59.5t-54 -200.5z" />
<glyph unicode="&#xe9;" horiz-adv-x="1067" d="M66 541q0 289 128 436t384 147q426 0 426 -508q0 -55 -2.5 -91t-10.5 -70h-616q6 -70 20.5 -116t41 -73.5t66.5 -39t97 -11.5q72 0 166 15.5t188 41.5l11 -227q-80 -29 -185.5 -46t-201.5 -17q-256 0 -384 141t-128 418zM375 639h354q-4 141 -41 200.5t-123 59.5 q-92 0 -136 -59.5t-54 -200.5zM446 1266l138 383h315l-231 -402z" />
<glyph unicode="&#xea;" horiz-adv-x="1067" d="M66 541q0 289 128 436t384 147q426 0 426 -508q0 -55 -2.5 -91t-10.5 -70h-616q6 -70 20.5 -116t41 -73.5t66.5 -39t97 -11.5q72 0 166 15.5t188 41.5l11 -227q-80 -29 -185.5 -46t-201.5 -17q-256 0 -384 141t-128 418zM213 1260v213l348 149l348 -149v-213l-348 149z M375 639h354q-4 141 -41 200.5t-123 59.5q-92 0 -136 -59.5t-54 -200.5z" />
<glyph unicode="&#xeb;" horiz-adv-x="1067" d="M66 541q0 289 128 436t384 147q426 0 426 -508q0 -55 -2.5 -91t-10.5 -70h-616q6 -70 20.5 -116t41 -73.5t66.5 -39t97 -11.5q72 0 166 15.5t188 41.5l11 -227q-80 -29 -185.5 -46t-201.5 -17q-256 0 -384 141t-128 418zM152 1421q0 78 36.5 114t118.5 36q158 0 158 -150 q0 -80 -39 -116.5t-119 -36.5q-82 0 -118.5 36.5t-36.5 116.5zM375 639h354q-4 141 -41 200.5t-123 59.5q-92 0 -136 -59.5t-54 -200.5zM633 1421q0 78 37 114t118 36q156 0 156 -150q0 -80 -38 -116.5t-118 -36.5q-82 0 -118.5 36.5t-36.5 116.5z" />
<glyph unicode="&#xec;" horiz-adv-x="532" d="M-80 1651h320l137 -381l-221 -21zM113 0v1106h309v-1106h-309z" />
<glyph unicode="&#xed;" horiz-adv-x="532" d="M111 0v1106h309v-1106h-309zM162 1266l137 383h315l-231 -402z" />
<glyph unicode="&#xee;" horiz-adv-x="534" d="M-53 1260v213l340 149l340 -149v-213l-340 149zM113 0v1106h309v-1106h-309z" />
<glyph unicode="&#xef;" horiz-adv-x="534" d="M-113 1421q0 78 37 114t119 36q158 0 158 -150q0 -80 -39 -116.5t-119 -36.5q-82 0 -119 36.5t-37 116.5zM113 0v1106h309v-1106h-309zM352 1421q0 78 37 114t119 36q156 0 156 -150q0 -80 -39 -116.5t-117 -36.5q-82 0 -119 36.5t-37 116.5z" />
<glyph unicode="&#xf0;" horiz-adv-x="1171" d="M63 551q0 283 130.5 429t375.5 146q57 0 103.5 -16t83.5 -55q-16 55 -38 108.5t-46 106.5l-293 -31v191l194 20q-35 53 -73.5 105.5t-83.5 99.5h315q59 -78 119 -174l283 32v-192l-189 -21q66 -150 107 -328.5t41 -396.5q0 -295 -130.5 -445t-383.5 -150 q-252 0 -383.5 145t-131.5 426zM375 553q0 -98 10 -162.5t33.5 -102.5t63 -54.5t96.5 -16.5t96 16.5t63.5 55.5t34.5 104.5t10 161.5q0 170 -43 252t-161 82q-57 0 -96.5 -16.5t-63 -55.5t-33.5 -103.5t-10 -160.5z" />
<glyph unicode="&#xf1;" horiz-adv-x="1167" d="M111 0v1106h260l18 -121h10q68 39 121 66.5t99.5 44t88.5 23.5t85 7q129 0 198.5 -77.5t69.5 -221.5v-827h-309v723q0 78 -28 110.5t-81 32.5q-47 0 -105.5 -19.5t-117.5 -51.5v-795h-309zM195 1354q59 104 135 157.5t147 53.5q45 0 86 -16.5t81 -35t81 -35t84 -16.5 q39 0 74 18.5t75 65.5l62 -71q-57 -109 -133 -160t-150 -51q-43 0 -84 15t-82 34.5t-81.5 35t-81.5 15.5t-77 -18.5t-77 -61.5z" />
<glyph unicode="&#xf2;" horiz-adv-x="1157" d="M63 553q0 283 131.5 428t383.5 145q254 0 384 -145t130 -428t-130 -428t-384 -145q-252 0 -383.5 145t-131.5 428zM221 1651h320l137 -381l-221 -21zM375 553q0 -98 10 -162.5t33.5 -102.5t63 -54.5t96.5 -16.5t96 16.5t63.5 54.5t34.5 102.5t10 162.5t-10 162.5 t-34.5 102.5t-63.5 54.5t-96 16.5t-96.5 -16.5t-63 -54.5t-33.5 -102.5t-10 -162.5z" />
<glyph unicode="&#xf3;" horiz-adv-x="1157" d="M63 553q0 283 131.5 428t383.5 145q254 0 384 -145t130 -428t-130 -428t-384 -145q-252 0 -383.5 145t-131.5 428zM375 553q0 -98 10 -162.5t33.5 -102.5t63 -54.5t96.5 -16.5t96 16.5t63.5 54.5t34.5 102.5t10 162.5t-10 162.5t-34.5 102.5t-63.5 54.5t-96 16.5 t-96.5 -16.5t-63 -54.5t-33.5 -102.5t-10 -162.5zM461 1266l137 383h315l-231 -402z" />
<glyph unicode="&#xf4;" horiz-adv-x="1157" d="M63 553q0 283 131.5 428t383.5 145q254 0 384 -145t130 -428t-130 -428t-384 -145q-252 0 -383.5 145t-131.5 428zM240 1260v213l348 149l348 -149v-213l-348 149zM375 553q0 -98 10 -162.5t33.5 -102.5t63 -54.5t96.5 -16.5t96 16.5t63.5 54.5t34.5 102.5t10 162.5 t-10 162.5t-34.5 102.5t-63.5 54.5t-96 16.5t-96.5 -16.5t-63 -54.5t-33.5 -102.5t-10 -162.5z" />
<glyph unicode="&#xf5;" horiz-adv-x="1157" d="M63 553q0 283 131.5 428t383.5 145q254 0 384 -145t130 -428t-130 -428t-384 -145q-252 0 -383.5 145t-131.5 428zM176 1354q59 104 135 157.5t148 53.5q45 0 86 -16.5t81 -35t81 -35t84 -16.5q39 0 73.5 18.5t75.5 65.5l61 -71q-57 -109 -132.5 -160t-149.5 -51 q-43 0 -84 15t-82 34.5t-82 35t-82 15.5t-77 -18.5t-76 -61.5zM375 553q0 -98 10 -162.5t33.5 -102.5t63 -54.5t96.5 -16.5t96 16.5t63.5 54.5t34.5 102.5t10 162.5t-10 162.5t-34.5 102.5t-63.5 54.5t-96 16.5t-96.5 -16.5t-63 -54.5t-33.5 -102.5t-10 -162.5z" />
<glyph unicode="&#xf6;" horiz-adv-x="1157" d="M63 553q0 283 131.5 428t383.5 145q254 0 384 -145t130 -428t-130 -428t-384 -145q-252 0 -383.5 145t-131.5 428zM180 1421q0 78 37 114t119 36q158 0 158 -150q0 -80 -39 -116.5t-119 -36.5q-82 0 -119 36.5t-37 116.5zM375 553q0 -98 10 -162.5t33.5 -102.5t63 -54.5 t96.5 -16.5t96 16.5t63.5 54.5t34.5 102.5t10 162.5t-10 162.5t-34.5 102.5t-63.5 54.5t-96 16.5t-96.5 -16.5t-63 -54.5t-33.5 -102.5t-10 -162.5zM662 1421q0 78 36.5 114t118.5 36q156 0 156 -150q0 -80 -38 -116.5t-118 -36.5q-82 0 -118.5 36.5t-36.5 116.5z" />
<glyph unicode="&#xf7;" horiz-adv-x="1058" d="M78 651v213h905v-213h-905zM395 389q0 70 39 103.5t101 33.5q61 0 100 -33.5t39 -103.5q0 -72 -39 -107.5t-100 -35.5t-100.5 35.5t-39.5 107.5zM395 1122q0 72 39 108t101 36q61 0 100 -36t39 -108q0 -70 -39 -103.5t-100 -33.5t-100.5 34t-39.5 103z" />
<glyph unicode="&#xf8;" horiz-adv-x="1169" d="M10 0l152 178q-90 143 -90 375q0 281 128 427t386 146q188 0 315 -86l55 66h201l-151 -176q94 -145 94 -377q0 -281 -129 -427t-385 -146q-199 0 -318 86l-57 -66h-201zM381 490.5q0 -27.5 4 -54.5l344 404q-43 49 -143 49q-61 0 -101.5 -16.5t-63 -55.5t-31.5 -103.5 t-9 -160.5v-62.5zM438 266q48 -49 148 -49q61 0 100 16.5t61.5 55.5t31.5 103.5t9 160.5q0 33 -1 61.5t-3 55.5z" />
<glyph unicode="&#xf9;" horiz-adv-x="1165" d="M102 279v827h310v-731q0 -76 27.5 -109t88.5 -33q47 0 100.5 19.5t116.5 56.5v797h310v-1106h-260l-19 119h-8q-66 -39 -114 -65.5t-90 -43t-82 -23.5t-87 -7q-139 0 -216 78.5t-77 220.5zM225 1651h320l137 -381l-221 -21z" />
<glyph unicode="&#xfa;" horiz-adv-x="1165" d="M102 279v827h310v-731q0 -76 27.5 -109t88.5 -33q47 0 100.5 19.5t116.5 56.5v797h310v-1106h-260l-19 119h-8q-66 -39 -114 -65.5t-90 -43t-82 -23.5t-87 -7q-139 0 -216 78.5t-77 220.5zM465 1266l137 383h316l-232 -402z" />
<glyph unicode="&#xfb;" horiz-adv-x="1165" d="M102 279v827h310v-731q0 -76 27.5 -109t88.5 -33q47 0 100.5 19.5t116.5 56.5v797h310v-1106h-260l-19 119h-8q-66 -39 -114 -65.5t-90 -43t-82 -23.5t-87 -7q-139 0 -216 78.5t-77 220.5zM246 1260v213l348 149l348 -149v-213l-348 149z" />
<glyph unicode="&#xfc;" horiz-adv-x="1165" d="M102 279v827h310v-731q0 -76 27.5 -109t88.5 -33q47 0 100.5 19.5t116.5 56.5v797h310v-1106h-260l-19 119h-8q-66 -39 -114 -65.5t-90 -43t-82 -23.5t-87 -7q-139 0 -216 78.5t-77 220.5zM184 1421q0 78 37 114t119 36q158 0 158 -150q0 -80 -39 -116.5t-119 -36.5 q-82 0 -119 36.5t-37 116.5zM666 1421q0 78 36.5 114t118.5 36q156 0 156 -150q0 -80 -38 -116.5t-118 -36.5q-82 0 -118.5 36.5t-36.5 116.5z" />
<glyph unicode="&#xfd;" horiz-adv-x="1136" d="M8 1079v27h320l194 -629l37 -164h19l36 164l197 629h317v-27l-550 -1530l-302 56v18l134 383zM463 1266l137 383h315l-231 -402z" />
<glyph unicode="&#xfe;" horiz-adv-x="1169" d="M111 -451v2106h309v-651q115 121 301 120q383 0 383 -540q0 -299 -135 -450.5t-418 -151.5q-23 0 -57.5 3t-73.5 7v-443h-309zM420 213q35 -12 69.5 -19.5t63.5 -7.5q68 0 113 15.5t72.5 56.5t40 111.5t12.5 179.5q0 106 -9.5 176t-31 109.5t-56.5 55t-84 15.5 q-51 0 -87 -18.5t-59.5 -61.5t-33.5 -111.5t-10 -166.5v-334z" />
<glyph unicode="&#xff;" horiz-adv-x="1136" d="M8 1079v27h320l194 -629l37 -164h19l36 164l197 629h317v-27l-550 -1530l-302 56v18l134 383zM178 1421q0 78 37 114t119 36q158 0 158 -150q0 -80 -39 -116.5t-119 -36.5q-82 0 -119 36.5t-37 116.5zM659 1421q0 78 37 114t119 36q156 0 156 -150q0 -80 -38 -116.5 t-118 -36.5q-82 0 -119 36.5t-37 116.5z" />
<glyph unicode="&#x152;" horiz-adv-x="1959" d="M70 756q0 387 172 581.5t495 194.5q59 0 115.5 -5t103.5 -11h912v-259h-596v-362h555v-248h-555v-389h614v-258h-930q-49 -10 -104.5 -13t-114.5 -3q-322 0 -494.5 193.5t-172.5 578.5zM389 756q0 -141 19.5 -238.5t63.5 -158t116 -87t178 -26.5q49 0 96 2t92 12v995 q-47 8 -94 11.5t-96 3.5q-104 0 -176 -28t-116 -89t-63.5 -158.5t-19.5 -238.5z" />
<glyph unicode="&#x153;" horiz-adv-x="1785" d="M63 553q0 283 131.5 428t383.5 145q123 0 209.5 -43t142.5 -125h16q113 166 350 166q426 0 426 -508q0 -55 -2 -89.5t-10 -69.5h-616q6 -135 58 -188.5t167 -53.5q70 0 165 15.5t189 41.5l10 -227q-82 -29 -186.5 -46t-198.5 -17q-123 0 -211 42t-143 119h-16 q-111 -164 -350 -163q-252 0 -383.5 145t-131.5 428zM375 553q0 -98 10 -162.5t33.5 -102.5t63 -54.5t96.5 -16.5t96 16.5t63.5 54.5t34.5 102.5t10 162.5t-10 162.5t-34.5 102.5t-63.5 54.5t-96 16.5t-96.5 -16.5t-63 -54.5t-33.5 -102.5t-10 -162.5zM1092 637h356 q-4 141 -40 201.5t-122 60.5q-92 0 -139 -61.5t-55 -200.5z" />
<glyph unicode="&#x178;" horiz-adv-x="1337" d="M-14 1516h350l282 -594l41 -123h19l43 123l283 594h346l-523 -1006v-510h-315v506zM240 1815q0 90 39.5 128.5t132.5 38.5q90 0 132 -39.5t42 -127.5q0 -90 -42 -130t-132 -40q-92 0 -132 39.5t-40 130.5zM758 1815q0 90 40 128.5t132 38.5q90 0 132 -39.5t42 -127.5 q0 -90 -42 -130t-132 -40q-92 0 -132 39.5t-40 130.5z" />
<glyph unicode="&#x2c6;" horiz-adv-x="856" d="M72 1260v213l348 149l348 -149v-213l-348 149z" />
<glyph unicode="&#x2dc;" horiz-adv-x="931" d="M43 1354q59 104 135 157.5t148 53.5q45 0 86 -16.5t80.5 -35t80.5 -35t84 -16.5q39 0 74 18.5t76 65.5l61 -71q-57 -109 -133 -160t-149 -51q-43 0 -84 15t-82 34.5t-82 35t-82 15.5t-77 -18.5t-77 -61.5z" />
<glyph unicode="&#x2000;" horiz-adv-x="1006" />
<glyph unicode="&#x2001;" horiz-adv-x="2013" />
<glyph unicode="&#x2002;" horiz-adv-x="1006" />
<glyph unicode="&#x2003;" horiz-adv-x="2013" />
<glyph unicode="&#x2004;" horiz-adv-x="671" />
<glyph unicode="&#x2005;" horiz-adv-x="503" />
<glyph unicode="&#x2006;" horiz-adv-x="335" />
<glyph unicode="&#x2007;" horiz-adv-x="335" />
<glyph unicode="&#x2008;" horiz-adv-x="251" />
<glyph unicode="&#x2009;" horiz-adv-x="402" />
<glyph unicode="&#x200a;" horiz-adv-x="111" />
<glyph unicode="&#x2010;" horiz-adv-x="874" d="M100 459v229h672v-229h-672z" />
<glyph unicode="&#x2011;" horiz-adv-x="874" d="M100 459v229h672v-229h-672z" />
<glyph unicode="&#x2012;" horiz-adv-x="874" d="M100 459v229h672v-229h-672z" />
<glyph unicode="&#x2013;" horiz-adv-x="1189" d="M104 459v229h979v-229h-979z" />
<glyph unicode="&#x2014;" horiz-adv-x="1540" d="M104 459v229h1330v-229h-1330z" />
<glyph unicode="&#x2018;" horiz-adv-x="434" d="M74 1229q0 111 39 225.5t104 204.5l145 -12q-29 -72 -45 -156t-16 -164q0 -70 12.5 -136.5t40.5 -137.5l-243 -19q-37 86 -37 195z" />
<glyph unicode="&#x2019;" horiz-adv-x="428" d="M72 1049q31 72 47 154.5t16 164.5q0 70 -12 136.5t-41 137.5l244 17q20 -41 28 -90t8 -105q0 -111 -38.5 -225.5t-104.5 -204.5z" />
<glyph unicode="&#x201a;" horiz-adv-x="446" d="M63 -299q31 72 47.5 155t16.5 164q0 70 -12.5 136.5t-40.5 138.5l243 16q20 -41 28.5 -90t8.5 -104q0 -111 -39 -225.5t-104 -204.5z" />
<glyph unicode="&#x201c;" horiz-adv-x="886" d="M74 1229q0 111 39 225.5t104 204.5l145 -12q-29 -72 -45 -156t-16 -164q0 -70 12.5 -136.5t40.5 -137.5l-243 -19q-37 86 -37 195zM524 1229q0 111 39 225.5t105 204.5l145 -12q-29 -72 -45 -156t-16 -164q0 -70 12 -136.5t41 -137.5l-244 -19q-37 86 -37 195z" />
<glyph unicode="&#x201d;" horiz-adv-x="878" d="M72 1049q31 72 47 154.5t16 164.5q0 70 -12 136.5t-41 137.5l244 17q20 -41 28 -90t8 -105q0 -111 -38.5 -225.5t-104.5 -204.5zM522 1049q31 72 47.5 154.5t16.5 164.5q0 70 -12.5 136.5t-41.5 137.5l244 17q20 -41 28.5 -90t8.5 -105q0 -111 -39 -225.5t-104 -204.5z " />
<glyph unicode="&#x201e;" horiz-adv-x="897" d="M63 -299q31 72 47.5 155t16.5 164q0 70 -12.5 136.5t-40.5 138.5l243 16q20 -41 28.5 -90t8.5 -104q0 -111 -39 -225.5t-104 -204.5zM514 -299q31 72 47.5 155t16.5 164q0 70 -12.5 136.5t-41.5 138.5l244 16q20 -41 28.5 -90t8.5 -104q0 -111 -39 -225.5t-104 -204.5z " />
<glyph unicode="&#x2022;" horiz-adv-x="694" d="M119 758q0 113 63.5 168t165.5 55q100 0 163.5 -55.5t63.5 -167.5q0 -113 -63.5 -168t-163.5 -55q-102 0 -165.5 55t-63.5 168z" />
<glyph unicode="&#x2026;" horiz-adv-x="1595" d="M78 154q0 88 43 128t131 40t133 -40t45 -128q0 -168 -178 -168q-174 0 -174 168zM627 154q0 88 43 128t131 40t133 -40t45 -128q0 -168 -178 -168q-174 0 -174 168zM1165 154q0 88 43 128t131 40t133.5 -40t45.5 -128q-1 -168 -179 -168q-174 0 -174 168z" />
<glyph unicode="&#x202f;" horiz-adv-x="402" />
<glyph unicode="&#x2039;" horiz-adv-x="679" d="M55 549v8l252 487h311l-251 -487v-8l251 -488h-311z" />
<glyph unicode="&#x203a;" horiz-adv-x="679" d="M61 61l252 488v8l-252 487h312l252 -487v-8l-252 -488h-312z" />
<glyph unicode="&#x205f;" horiz-adv-x="503" />
<glyph unicode="&#x20ac;" horiz-adv-x="1249" d="M63 496v178h150q-2 20 -2 39.5v42.5v42t2 42h-150v178h170q53 262 222.5 390t466.5 128q82 0 146.5 -10t111.5 -25l-64 -246q-74 12 -149 13q-94 0 -164 -13.5t-120 -42t-82 -77t-48 -117.5h483l-41 -178h-463q-2 -20 -2 -41v-43v-43.5t2 -38.5h437l-39 -178h-375 q33 -139 129 -194.5t283 -55.5q106 0 204 24v-260q-47 -16 -110.5 -23t-134.5 -7q-586 2 -690 516h-173z" />
<glyph unicode="&#x2122;" horiz-adv-x="1847" d="M53 1346v170h680v-170h-239v-691h-201v691h-240zM825 655v861h267l184 -533l184 533h266v-861h-186v574l-182 -535h-164l-182 535v-574h-187z" />
<glyph unicode="&#x25fc;" horiz-adv-x="1105" d="M0 0v1106h1106v-1106h-1106z" />
</font>
</defs>
</svg>
