<?xml version="1.0" standalone="no"?>
<!DOCTYPE svg PUBLIC "-//W3C//DTD SVG 1.1//EN" "http://www.w3.org/Graphics/SVG/1.1/DTD/svg11.dtd" >
<svg xmlns="http://www.w3.org/2000/svg">
<metadata></metadata>
<defs>
<font id="uni_sans_regularregular" horiz-adv-x="999" >
<font-face units-per-em="2048" ascent="1548" descent="-500" />
<missing-glyph horiz-adv-x="430" />
<glyph unicode="&#xfb01;" horiz-adv-x="1003" d="M131 0v1098q0 170 110.5 261t284.5 93v-160q-110 0 -170.5 -51t-60.5 -143v-137h217v-162h-217v-799h-164zM674 1356q0 49 33 81.5t81 32.5q50 0 82.5 -32.5t32.5 -81.5q0 -48 -33 -81.5t-82 -33.5q-47 0 -80.5 34t-33.5 81zM711 0v1061h163v-1061h-163z" />
<glyph unicode="&#xfb02;" horiz-adv-x="1071" d="M129 0v1106q0 170 110.5 261t284.5 93v-160q-110 0 -170.5 -51t-60.5 -143v-197h217v-164h-217v-745h-164zM696 326v1106h164v-1106q0 -183 197 -183v-163q-172 0 -266.5 91t-94.5 255z" />
<glyph horiz-adv-x="0" />
<glyph horiz-adv-x="682" />
<glyph unicode=" "  horiz-adv-x="430" />
<glyph unicode="&#x09;" horiz-adv-x="430" />
<glyph unicode="&#xa0;" horiz-adv-x="430" />
<glyph unicode="!" horiz-adv-x="442" d="M100 100q0 51 35 86t86 35t86 -35t35 -86t-35 -85.5t-86 -34.5t-86 34.5t-35 85.5zM137 352v1069h168v-1069h-168z" />
<glyph unicode="&#x22;" horiz-adv-x="667" d="M123 932v498h174l-37 -498h-137zM391 932v498h174l-39 -498h-135z" />
<glyph unicode="#" horiz-adv-x="1232" d="M59 432l35 162h178q11 36 37 118.5t41 137.5h-211l35 164h225l121 413h178l-123 -413h256l123 413h179l-125 -413h168l-46 -164h-172l-73 -256h207l-37 -162h-221q-18 -62 -62 -210t-65 -224h-177l127 434h-258q-21 -79 -65 -227.5t-60 -206.5h-178l127 434h-164z M451 594h254q51 163 77 256h-256q-73 -249 -75 -256z" />
<glyph unicode="$" horiz-adv-x="1183" d="M57 285l156 69q37 -86 117 -138t182 -66v524q-56 12 -95 22.5t-88 28t-82.5 37.5t-67 50.5t-53 67t-30.5 87t-8 110.5v-2q6 165 125 263t299 118v199h150v-199q149 -14 272.5 -91.5t179.5 -207.5l-153 -70q-39 87 -119 139.5t-180 61.5v-475q57 -12 99 -22.5t93 -29.5 t87 -41t71.5 -55.5t56 -74.5t32 -98t7.5 -125q-5 -86 -43 -157t-99.5 -118.5t-139 -76t-164.5 -35.5v-201h-150v201q-151 16 -275 94.5t-180 210.5zM256 1067q-3 -42 9 -75t33 -55t57.5 -40.5t71.5 -29.5t85 -23v442q-107 -14 -178.5 -71t-77.5 -148zM662 150 q110 14 188.5 73t89.5 152q1 59 -19 104t-60 75.5t-87.5 50.5t-111.5 36v-491z" />
<glyph unicode="%" horiz-adv-x="1597" d="M57 1075q0 179 88 287t226 108q148 0 231.5 -103.5t83.5 -291.5q0 -183 -88 -291t-227 -108q-150 0 -232 102.5t-82 296.5zM213 -57l997 1579l138 -88l-1000 -1579zM225 1075q0 -122 35.5 -176.5t110.5 -54.5q147 0 147 231q0 232 -149 232q-144 0 -144 -232zM911 377 q0 181 87 288t227 107q147 0 230 -103t83 -292q0 -183 -87 -290t-226 -107q-152 0 -233 101.5t-81 295.5zM1077 377q0 -123 36 -177.5t112 -54.5q147 0 147 232q0 117 -39 175t-110 58q-74 0 -110 -57t-36 -176z" />
<glyph unicode="&#x26;" horiz-adv-x="1290" d="M72 393q0 259 293 436q-70 81 -110 155t-40 157q0 150 108.5 239.5t258.5 89.5q135 0 234 -87.5t99 -221.5q0 -56 -17 -105t-41 -83.5t-65.5 -68.5t-76 -55.5t-86.5 -49.5l282 -336q16 27 53 88t52 88l143 -72l-131 -219l240 -276h-219l-119 131q-89 -110 -188.5 -166.5 t-231.5 -56.5q-188 0 -313 113.5t-125 299.5zM242 397q0 -115 82 -184.5t204 -69.5q161 0 293 176l-350 400q-92 -57 -160.5 -143.5t-68.5 -178.5zM387 1143q0 -86 131 -238q47 23 80 43.5t70.5 51.5t57 70t19.5 83q0 72 -48 118t-122 46q-79 0 -133.5 -49t-54.5 -125z" />
<glyph unicode="'" horiz-adv-x="403" d="M123 932v498h172l-27 -498h-145z" />
<glyph unicode="(" horiz-adv-x="565" d="M86 690q0 233 76.5 469t214.5 430l139 -92q-128 -163 -195 -381t-67 -426q0 -213 67 -409t197 -404l-133 -86q-144 198 -221.5 435t-77.5 464z" />
<glyph unicode=")" horiz-adv-x="569" d="M47 -178q128 162 197 381.5t69 425.5q0 436 -262 850l133 88q142 -197 221.5 -452t79.5 -486q0 -232 -77 -468.5t-215 -430.5z" />
<glyph unicode="*" horiz-adv-x="917" d="M68 1096l41 141l280 -90v283h146v-285l270 88l43 -143l-268 -84l170 -232l-115 -88l-174 236l-170 -238l-123 88l174 236z" />
<glyph unicode="+" horiz-adv-x="1193" d="M76 606v168h448v436h166v-436h430v-168h-430v-440h-166v440h-448z" />
<glyph unicode="," horiz-adv-x="450" d="M6 -268l144 448h192l-168 -448h-168z" />
<glyph unicode="-" horiz-adv-x="772" d="M119 526v168h534v-168h-534z" />
<glyph unicode="." horiz-adv-x="438" d="M98 109q0 51 35 85.5t86 34.5t86 -34.5t35 -85.5t-35 -86t-86 -35t-86 35t-35 86z" />
<glyph unicode="/" horiz-adv-x="849" d="M45 -23l610 1530l152 -53l-608 -1532z" />
<glyph unicode="0" horiz-adv-x="1271" d="M113 406v638q0 106 46.5 190t123 134t167.5 76t187 26t186.5 -26t167 -76t122.5 -134t46 -190v-638q0 -105 -46 -189t-122.5 -134.5t-167 -76.5t-186.5 -26t-187 26t-167.5 76.5t-123 134.5t-46.5 189zM283 401q0 -69 32 -121t85 -81t112.5 -42.5t124.5 -13.5t124.5 13.5 t112.5 42.5t85 81t32 121v643q0 70 -32 122.5t-85 81t-112.5 42t-124.5 13.5t-124.5 -13.5t-112.5 -42t-85 -81t-32 -122.5v-643z" />
<glyph unicode="1" horiz-adv-x="653" d="M16 1090l342 360h156v-1450h-166v1206l-205 -219z" />
<glyph unicode="2" horiz-adv-x="1167" d="M74 125l698 682q131 125 131 254q0 102 -87 172t-226 70q-123 0 -219 -55t-140 -152l-151 63q63 149 202 230t312 81q211 0 345 -121t134 -290q0 -87 -47.5 -186t-130.5 -183l-526 -520h704v-168h-946z" />
<glyph unicode="3" horiz-adv-x="1189" d="M59 274l154 74q46 -94 149 -149.5t220 -55.5q92 0 171 30t131 94t52 149q0 144 -82.5 215t-232.5 69h-142v148h142q113 0 182 59t69 170q0 75 -42.5 129t-106.5 77.5t-141 23.5q-101 0 -188.5 -45t-131.5 -127l-145 75q61 123 190.5 191.5t274.5 68.5q71 0 137 -15.5 t124 -47.5t101.5 -77.5t68.5 -110.5t25 -142q0 -95 -40.5 -175.5t-125.5 -119.5q114 -38 173 -139t59 -229q-1 -105 -46 -190t-119 -137t-165.5 -79.5t-191.5 -27.5q-106 0 -206 31.5t-186 99.5t-131 163z" />
<glyph unicode="4" horiz-adv-x="1157" d="M25 512l761 938h177v-932h114v-156h-114v-358h-168v358h-660zM242 518h553l4 694z" />
<glyph unicode="5" horiz-adv-x="1189" d="M80 270l153 72q44 -90 143 -140t212 -50q91 0 171.5 34t133.5 102.5t53 157.5v66q0 88 -49.5 153t-127 95.5t-171.5 30.5q-100 0 -184.5 -20.5t-182.5 -65.5l-94 -5v750h905v-172h-737v-371q152 59 293 56q77 -1 150 -18.5t139 -54t116 -88.5t80 -126t31 -162v-68 q0 -108 -45.5 -197.5t-120.5 -147.5t-169.5 -89.5t-194.5 -31.5q-159 0 -297.5 75.5t-206.5 214.5z" />
<glyph unicode="6" horiz-adv-x="1263" d="M113 412v630q0 104 46 187.5t122.5 135.5t171.5 79t198 26q161 0 298.5 -73.5t205.5 -208.5l-154 -76q-92 191 -350 191q-97 0 -179 -28t-135.5 -89.5t-53.5 -145.5v-284q64 84 165 123t203 39q81 0 158 -17.5t144 -53t117.5 -86t80 -121.5t29.5 -153v-84 q0 -102 -44.5 -184t-120 -132t-168.5 -76.5t-196 -26.5q-103 -1 -198 26.5t-171.5 79.5t-122.5 135.5t-46 186.5zM283 414q0 -84 53.5 -145t135.5 -89t179 -28q95 0 175 28.5t132 89.5t52 144v71q0 83 -52 144.5t-132 90t-175 28.5q-97 0 -179 -28t-135.5 -89.5 t-53.5 -145.5v-71z" />
<glyph unicode="7" horiz-adv-x="1050" d="M57 1282v168h918l55 -113l-715 -1337h-186l676 1282h-748z" />
<glyph unicode="8" horiz-adv-x="1255" d="M86 416q0 118 58.5 214.5t174.5 147.5q-81 29 -125 109t-44 166q1 96 40 173.5t103.5 125.5t145.5 73t169 25h37q88 0 169 -25t146.5 -73t104.5 -125.5t39 -173.5q0 -86 -41.5 -164.5t-114.5 -112.5q105 -37 163 -138t58 -222q-2 -105 -47 -188t-120 -134.5t-165 -80 t-192 -33.5h-37q-100 0 -192 28t-165.5 80.5t-118.5 137.5t-46 190zM252 418q0 -70 32.5 -124t85.5 -85t113.5 -46.5t124.5 -15.5h37q64 0 124.5 15.5t113.5 46.5t85.5 85t32.5 124q0 282 -356 282h-37q-356 0 -356 -282zM315 1053q0 -51 17 -89t44.5 -60t67.5 -35.5 t78.5 -18t85.5 -4.5h37q47 0 85.5 4.5t78.5 18t67.5 35.5t44.5 60t17 89q0 114 -85 173.5t-208 59.5h-37q-123 0 -208 -59.5t-85 -173.5z" />
<glyph unicode="9" horiz-adv-x="1263" d="M84 950v92q0 103 45 186.5t120 135t169 79t196 27.5q102 1 196.5 -26t170.5 -79t122.5 -135.5t47.5 -187.5v-632q0 -103 -46 -186.5t-122.5 -135t-171 -79t-197.5 -27.5q-162 0 -299 73.5t-204 208.5l153 78q43 -93 138 -142.5t212 -49.5q97 0 179 28t136 89t54 145v268 q-103 -156 -369 -156q-103 1 -196.5 28.5t-168.5 78.5t-120 134t-45 185zM254 952q0 -83 52 -144t132 -89.5t176 -28.5q97 0 179 28t136 89t54 145v88q0 85 -54 146.5t-135.5 89t-179.5 27.5q-96 0 -176 -28t-132 -89.5t-52 -145.5v-88z" />
<glyph unicode=":" horiz-adv-x="479" d="M119 137q0 52 35 86.5t86 34.5t85.5 -34.5t34.5 -86.5q0 -51 -34.5 -85t-85.5 -34t-86 34t-35 85zM119 872q0 51 35 86t86 35t85.5 -35t34.5 -86t-34.5 -85.5t-85.5 -34.5t-86 34.5t-35 85.5z" />
<glyph unicode=";" horiz-adv-x="520" d="M59 -268l125 497h211l-168 -497h-168zM129 844q0 51 34.5 86t86.5 35q51 0 85 -35t34 -86t-34 -86t-85 -35q-52 0 -86.5 35t-34.5 86z" />
<glyph unicode="&#x3c;" horiz-adv-x="905" d="M59 553v125l738 440v-192l-531 -310q84 -48 262.5 -150.5t268.5 -154.5v-190z" />
<glyph unicode="=" horiz-adv-x="1091" d="M123 371v161h846v-161h-846zM123 682v160h846v-160h-846z" />
<glyph unicode="&#x3e;" horiz-adv-x="907" d="M109 121v190l530 305q-106 61 -306.5 178.5t-223.5 131.5v192l739 -440v-125z" />
<glyph unicode="?" horiz-adv-x="995" d="M47 1268l19 22q69 87 175.5 133.5t225.5 46.5q91 0 173.5 -27t148.5 -78.5t105 -133.5t38 -184q-1 -98 -34 -177t-90.5 -131t-127 -84.5t-152.5 -48.5q-2 -54 -7 -146.5t-7 -140.5h-145l-13 429q107 1 199.5 35.5t152.5 104.5t58 161q-3 122 -91.5 189t-211.5 67 q-79 0 -156 -36t-131 -102zM332 90q0 46 32 78.5t78 32.5t78.5 -32.5t32.5 -78.5t-32.5 -78t-78.5 -32t-78 32t-32 78z" />
<glyph unicode="@" horiz-adv-x="1556" d="M88 719q0 152 57 288.5t154.5 234t233 155t286.5 57.5q143 0 269 -46.5t215.5 -126t141.5 -190.5t52 -237q0 -121 -41.5 -232t-108 -188.5t-151.5 -123.5t-170 -46q-53 0 -90.5 30.5t-40.5 96.5q-36 -58 -101.5 -88.5t-134.5 -30.5q-115 0 -196.5 93.5t-81.5 209.5 q0 107 32 209.5t90.5 185t149 133t197.5 50.5q64 0 125 -37.5t72 -101.5l26 71l162 -6l-178 -551q-20 -63 -18 -80q2 -26 30 -26q59 0 123 65.5t106.5 167.5t42.5 199q0 155 -84 262l-4 6q-71 88 -185 136.5t-245 48.5q-162 0 -296 -82t-208.5 -216.5t-74.5 -289.5 q0 -177 62.5 -308.5t193 -207.5t317.5 -76q104 0 211 43l70 -131q-147 -57 -281 -57q-184 0 -325.5 57t-228.5 158.5t-131 233t-44 288.5zM537 580q0 -68 38 -111t101 -43q77 0 147 68t108 160t38 173q0 80 -32 126t-95 46q-74 1 -134.5 -39.5t-96.5 -104.5t-55 -136 t-19 -139z" />
<glyph unicode="A" horiz-adv-x="1267" d="M8 0l520 1450h209l525 -1450h-181l-168 465h-559q-17 -49 -76 -213.5t-88 -251.5h-182zM412 637h442q-43 121 -114 324.5t-107 304.5q-147 -423 -221 -629z" />
<glyph unicode="B" horiz-adv-x="1282" d="M152 0v1450h557q120 0 214.5 -41t153 -128.5t58.5 -211.5q0 -192 -121 -293q188 -97 188 -360q-2 -112 -40 -194t-106 -129.5t-154.5 -70t-194.5 -22.5h-555zM324 172h385h22q59 0 107 9q56 11 100.5 38t68 77t23.5 122q0 142 -82 204q-80 60 -229 60h-10h-385v-510z M324 854h385q119 0 188.5 51.5t69.5 163.5q0 111 -70.5 160t-187.5 49h-385v-424z" />
<glyph unicode="C" horiz-adv-x="1220" d="M109 432v580q0 108 47.5 197t126 145t176.5 86t203 30q107 0 205 -30.5t180.5 -97.5t126.5 -162l-154 -74q-49 94 -149.5 145.5t-215.5 51.5q-96 0 -179.5 -31.5t-139 -98.5t-55.5 -157v-584q0 -90 55.5 -155t138.5 -95t180 -30q118 0 217.5 50.5t147.5 143.5l154 -72 q-68 -142 -211 -218t-308 -76q-83 0 -161.5 18t-148.5 55t-122.5 89.5t-83 127t-30.5 162.5z" />
<glyph unicode="D" horiz-adv-x="1306" d="M152 0v1450h491q85 0 163.5 -15.5t149.5 -50t123.5 -84t83.5 -123.5t31 -163v-580q0 -89 -31 -162t-83.5 -123t-123.5 -84t-149.5 -49.5t-163.5 -15.5h-491zM324 172h319q74 0 140 15t120.5 45t86.5 82t32 120v580q0 69 -32 121t-86.5 82.5t-120.5 45.5t-140 15h-319 v-1106z" />
<glyph unicode="E" horiz-adv-x="1169" d="M152 0v1450h929v-172h-757v-467h698v-172h-698v-467h757v-172h-929z" />
<glyph unicode="F" horiz-adv-x="1142" d="M152 0v1450h927v-172h-755v-508h663v-172h-663v-598h-172z" />
<glyph unicode="G" horiz-adv-x="1294" d="M109 438v580q0 108 47 196t125 143t174.5 84t201.5 29q163 0 303.5 -76t208.5 -218l-155 -70q-45 93 -146 145t-215 52q-97 0 -180 -30t-138.5 -95.5t-55.5 -155.5v-584q0 -92 56.5 -159t140 -97t181.5 -30q72 0 139 18t121.5 52t87.5 90t33 126v146h-428v170h598v-316 q0 -111 -47 -200.5t-125.5 -144.5t-175.5 -84t-203 -29t-202.5 29t-174.5 84t-124.5 144.5t-46.5 200.5z" />
<glyph unicode="H" horiz-adv-x="1404" d="M152 0v1450h172v-641h757v641h172v-1450h-172v639h-757v-639h-172z" />
<glyph unicode="I" horiz-adv-x="473" d="M152 0v1450h170v-1450h-170z" />
<glyph unicode="J" horiz-adv-x="1218" d="M29 375l170 35q24 -122 124.5 -190t227.5 -68q91 0 170 30.5t131.5 96.5t52.5 157v842h-465v172h637v-1020q0 -107 -45 -194.5t-119.5 -142.5t-167.5 -84t-194 -29q-120 0 -227.5 42.5t-189 134t-105.5 218.5z" />
<glyph unicode="K" horiz-adv-x="1290" d="M152 0v1450h172v-729l741 729h227l-698 -698q85 -92 329.5 -359.5t360.5 -392.5h-223l-590 629l-147 -148v-481h-172z" />
<glyph unicode="L" horiz-adv-x="1048" d="M152 0v1450h172v-1278h696v-172h-868z" />
<glyph unicode="M" horiz-adv-x="1630" d="M152 0v1450h215l448 -1012l449 1012h215v-1450h-172v1128l-418 -938h-146l-419 936v-1126h-172z" />
<glyph unicode="N" horiz-adv-x="1404" d="M152 0v1450h184l745 -1198v1198h172v-1450h-217l-712 1149v-1149h-172z" />
<glyph unicode="O" horiz-adv-x="1378" d="M109 436v580q0 88 32.5 163t87.5 128t129.5 90t158 55t171.5 18t171.5 -18t157.5 -55t130 -90t88.5 -128t32.5 -163v-580q0 -110 -49.5 -198.5t-132.5 -143.5t-185 -84.5t-213 -29.5t-213.5 29.5t-185 84.5t-131.5 143.5t-49 198.5zM279 438q0 -91 60 -157.5t151 -97.5 t198 -31q106 0 197.5 31t152 97.5t60.5 157.5v578q0 73 -35 129.5t-94.5 90t-131.5 50.5t-151 17q-79 -1 -150.5 -18.5t-129.5 -51.5t-92.5 -90t-34.5 -127v-578z" />
<glyph unicode="P" horiz-adv-x="1251" d="M152 0v1450h553q118 0 213.5 -40t154 -106.5t90 -148.5t31.5 -170q0 -89 -31 -171t-90 -147.5t-154 -105t-212 -39.5h-385v-522h-170zM322 694h383q152 0 235.5 86.5t83.5 204.5q0 119 -84 206t-235 87h-383v-584z" />
<glyph unicode="Q" horiz-adv-x="1378" d="M109 436v580q0 88 32.5 163t87.5 128t129.5 90t158 55t171.5 18t171.5 -18t157.5 -55t130 -90t88.5 -128t32.5 -163v-580q0 -163 -107 -276l113 -144l-119 -84l-108 136q-161 -88 -359 -88q-111 0 -213.5 29.5t-185 84.5t-131.5 143.5t-49 198.5zM279 436q0 -91 60 -157 t151 -96.5t198 -30.5q166 0 258 41l-121 151l119 88l115 -145q39 61 39 149v580q0 73 -35 129.5t-94.5 90t-131.5 50.5t-151 17q-107 0 -197 -29.5t-150 -96.5t-60 -161v-580z" />
<glyph unicode="R" horiz-adv-x="1267" d="M152 0v1450h553q107 0 194.5 -25t155 -76t105.5 -135.5t40 -197.5q0 -105 -33.5 -185.5t-94 -130t-138.5 -75.5t-174 -31l467 -594h-211l-469 592h-223v-592h-172zM324 752h383q157 0 239 60.5t82 203.5q0 142 -84 202t-237 60h-383v-526z" />
<glyph unicode="S" horiz-adv-x="1214" d="M63 291l158 71q44 -100 152 -156t233 -56q89 0 165 25t128 79.5t57 130.5q1 12 1 23q0 46 -16 82q-20 46 -46.5 72.5t-88 50t-99.5 33t-120 26.5q-6 1 -9 2q-60 12 -102 22.5t-96.5 28.5t-91.5 38t-76.5 51t-63 67.5t-39 87.5t-15.5 112q7 122 83 212.5t187.5 133.5 t239.5 43q171 0 319.5 -79t211.5 -224l-156 -69q-43 97 -148.5 152t-226.5 55q-87 0 -160.5 -24.5t-124 -78t-55.5 -127.5v-13q0 -42 16 -74q19 -38 41 -58.5t81 -40.5t88 -27t109 -22q13 -3 19 -4q72 -14 110 -22.5t103 -27.5t100.5 -39t81 -55t67.5 -77q24 -42 38 -103 q11 -48 11 -104q0 -15 -1 -31q-5 -96 -51.5 -173.5t-120.5 -125.5t-164.5 -73t-189.5 -25q-112 0 -216.5 33.5t-192 105.5t-130.5 172z" />
<glyph unicode="T" horiz-adv-x="1159" d="M29 1278v172h1101v-172h-464v-1278h-172v1278h-465z" />
<glyph unicode="U" horiz-adv-x="1384" d="M141 442v1008h172v-1008q0 -94 56 -161.5t140 -98t183 -30.5q98 0 182 30.5t140.5 98t56.5 161.5v1008h172v-1008q0 -89 -31 -165.5t-84 -130t-123.5 -92t-150 -56.5t-162.5 -18q-106 0 -203 29.5t-175.5 85.5t-125.5 146t-47 201z" />
<glyph unicode="V" horiz-adv-x="1263" d="M4 1450h182l447 -1255l444 1255h180l-520 -1450h-211z" />
<glyph unicode="W" horiz-adv-x="1910" d="M20 1450h179l348 -1245l334 1063h151l332 -1061l350 1243h176l-420 -1450h-208l-306 965l-307 -965h-209z" />
<glyph unicode="X" horiz-adv-x="1218" d="M8 0l498 723l-494 727h205l391 -573l391 573h207l-495 -727l497 -723h-209l-391 582l-391 -582h-209z" />
<glyph unicode="Y" horiz-adv-x="1185" d="M2 1450h199l393 -702l389 702h201l-506 -885v-565h-172v565z" />
<glyph unicode="Z" horiz-adv-x="1193" d="M45 121l848 1157h-809v172h1003l56 -119l-848 -1159h823v-172h-1024z" />
<glyph unicode="[" horiz-adv-x="542" d="M127 -258v1780h346v-154h-176v-1472h176v-154h-346z" />
<glyph unicode="\" horiz-adv-x="851" d="M45 1454l154 53l610 -1530l-156 -53z" />
<glyph unicode="]" horiz-adv-x="542" d="M70 -109h174v1485h-174v148h346v-1780h-346v147z" />
<glyph unicode="^" horiz-adv-x="1144" d="M80 854l428 576h117l440 -576h-201l-297 389l-284 -389h-203z" />
<glyph unicode="_" horiz-adv-x="1271" d="M123 -6h1026v-164h-1026v164z" />
<glyph unicode="`" horiz-adv-x="430" d="M-86 1825h219l168 -275h-168z" />
<glyph unicode="a" d="M68 311q1 112 58 190t144.5 113t196.5 35q133 0 254 -51v141q0 88 -74 139.5t-176 51.5q-74 0 -145.5 -29.5t-116.5 -85.5l-103 100q72 80 173 123t204 43q78 0 149 -21.5t128 -63t91 -108t34 -149.5v-688q-206 -71 -421 -71h-18q-169 2 -273.5 85t-104.5 246zM229 311 q0 -96 61 -143t161 -49h35q133 0 235 20v340q-118 41 -238 41q-70 0 -125 -19.5t-91.5 -68t-37.5 -121.5z" />
<glyph unicode="b" horiz-adv-x="1046" d="M127 55v1379h164v-418q124 65 258 65q108 0 196 -37t145.5 -119t57.5 -198v-395q0 -85 -34.5 -153.5t-92.5 -110t-129 -64t-149 -24.5q-194 0 -416 75zM291 160q106 -33 252 -33q96 0 167.5 56t71.5 149v397q0 95 -70.5 150t-168.5 57q-142 0 -252 -59v-717z" />
<glyph unicode="c" horiz-adv-x="950" d="M96 334v393q0 86 35 155t94 111.5t131 65t150 22.5q123 0 215.5 -46t165.5 -165l-129 -75q-46 74 -107 98.5t-145 24.5q-100 0 -173 -50t-73 -141v-397q0 -90 72 -143.5t176 -53.5q55 0 104 15t93 54t67 99l131 -61q-44 -126 -155 -193t-242 -67q-78 0 -150 22.5t-131 65 t-94 111.5t-35 155z" />
<glyph unicode="d" horiz-adv-x="1046" d="M98 332v393q0 110 60.5 192.5t152.5 122t197 39.5q147 0 248 -65v420h164v-1379q-222 -75 -416 -75q-78 2 -149.5 24.5t-129.5 64t-92.5 110t-34.5 153.5zM264 334q0 -90 72.5 -149.5t167.5 -59.5q153 0 252 31v718q-117 60 -248 60q-100 0 -172 -55t-72 -154v-391z" />
<glyph unicode="e" d="M98 332v397q0 69 23 127.5t63 99.5t92.5 69.5t111.5 42t122 13.5q61 0 119 -13.5t110 -42t91 -69.5t62 -99.5t23 -127.5v-280h-651v-130q0 -91 72 -139.5t174 -48.5q77 0 144 36.5t98 106.5l143 -61q-53 -113 -158.5 -173t-226.5 -60q-79 0 -151.5 22.5t-131 64.5 t-94 111t-35.5 154zM264 586h496v151q0 89 -76 142t-174 53q-107 0 -177 -53t-69 -146v-147z" />
<glyph unicode="f" horiz-adv-x="548" d="M131 0v1098q0 170 110.5 261t284.5 93v-160q-110 0 -170.5 -51t-60.5 -143v-70h217v-147h-217v-881h-164z" />
<glyph unicode="g" horiz-adv-x="1036" d="M98 332v401q0 84 34 151.5t91 109.5t127.5 64.5t147.5 22.5q110 0 201.5 -18t209.5 -66v-1050q0 -86 -34 -153.5t-91.5 -107.5t-127.5 -60.5t-148 -20.5q-105 0 -204.5 40t-168.5 115l101 101q34 -42 111 -73.5t147 -31.5q41 0 75.5 5t68.5 18.5t57.5 34.5t38 55t14.5 78 v88q-105 -55 -242 -55h-6q-75 0 -144 22q-73 24 -130.5 67t-92.5 111.5t-35 151.5zM262 324q0 -90 69.5 -144.5t170.5 -54.5q127 0 246 45v719q-109 43 -250 43q-95 0 -166 -56t-70 -147v-405z" />
<glyph unicode="h" horiz-adv-x="1069" d="M131 0v1430h164v-410q122 61 260 61h14q71 0 134 -19q69 -21 124 -63t87 -111.5t32 -158.5v-729h-162v731q0 96 -71.5 146.5t-171.5 52.5q-124 0 -246 -53v-877h-164z" />
<glyph unicode="i" horiz-adv-x="425" d="M94 1356q0 49 33.5 81.5t81.5 32.5q50 0 82.5 -32.5t32.5 -81.5q0 -48 -33 -81.5t-82 -33.5q-47 0 -81 34t-34 81zM131 0v1061h164v-1061h-164z" />
<glyph unicode="j" horiz-adv-x="425" d="M-66 -201v-164q172 0 266.5 91.5t94.5 255.5v1079h-164v-1079q0 -183 -197 -183zM96 1356q0 49 33.5 81.5t81.5 32.5q50 0 82.5 -32.5t32.5 -81.5q0 -48 -33 -81.5t-82 -33.5q-47 0 -81 34t-34 81z" />
<glyph unicode="k" horiz-adv-x="1017" d="M131 0v1430h164v-861l491 492h213l-479 -483l469 -578h-207l-376 461l-111 -111v-350h-164z" />
<glyph unicode="l" horiz-adv-x="495" d="M123 326v1106h164v-1106q0 -91 49 -142t147 -51v-153q-172 0 -266 91t-94 255z" />
<glyph unicode="m" horiz-adv-x="1626" d="M127 0v985q178 96 360 96q93 0 177 -30t143 -90q57 59 139 89.5t160 30.5q180 0 288.5 -89t108.5 -265v-727h-164v739q-1 103 -67 149q-64 44 -159 44h-9q-81 -2 -148 -43t-67 -111v-778h-160v766q0 81 -71.5 123.5t-176.5 42.5q-117 0 -190 -49v-883h-164z" />
<glyph unicode="n" horiz-adv-x="1062" d="M127 0v993q253 88 414 88q78 -2 147.5 -23.5t127 -63t91 -109t33.5 -152.5v-733h-162v739q0 91 -71 141t-166 50q-129 0 -250 -47v-883h-164z" />
<glyph unicode="o" horiz-adv-x="1013" d="M96 334v393q0 69 23 127t63 99t92.5 70t112 43t121.5 15q62 -1 120.5 -15t110.5 -43t91 -70t62 -99t23 -127v-393q0 -86 -34.5 -155t-93 -111t-130 -64.5t-149.5 -23.5q-63 1 -122 14.5t-111.5 42.5t-92.5 70t-63 99.5t-23 127.5zM260 332q0 -93 75 -145t173 -52 q96 0 170 52t74 145v399q0 93 -74 144t-170 51q-99 0 -173.5 -51t-74.5 -144v-399z" />
<glyph unicode="p" horiz-adv-x="1048" d="M129 -371v1377q232 75 416 75q78 -1 149 -23t129 -64t92.5 -110.5t34.5 -154.5v-393q0 -111 -60.5 -193.5t-152.5 -122.5q-90 -38 -193 -38h-5q-135 0 -246 57v-410h-164zM293 184q126 -47 248 -47q99 2 171 54.5t72 142.5v397q0 88 -71.5 140.5t-167.5 52.5 q-167 0 -252 -25v-715z" />
<glyph unicode="q" horiz-adv-x="1048" d="M98 334v395q0 86 34.5 154.5t92.5 110.5t129.5 64t149.5 23q199 0 416 -71v-1381h-164v408q-95 -57 -267 -57h-5q-103 0 -188 38q-88 40 -143 122.5t-55 193.5zM264 319q0 -88 73 -141t171 -55q122 0 248 47v731q-112 33 -252 33q-97 0 -169 -54t-71 -145v-416z" />
<glyph unicode="r" horiz-adv-x="638" d="M123 0v727q0 86 35.5 155.5t93.5 111.5t127 64t141 23q53 0 92 -8v-153q-29 6 -86 6q-102 0 -170.5 -52.5t-68.5 -146.5v-727h-164z" />
<glyph unicode="s" horiz-adv-x="907" d="M57 201l123 84q51 -76 133.5 -115t169.5 -39q78 -1 138 45q59 45 59 120q0 35 -13.5 61.5t-32 42t-50 28.5t-55 18.5t-58.5 12.5q-43 8 -76 15t-73.5 20.5t-70.5 28.5t-60.5 39t-49.5 52.5t-31 68.5t-12 87q0 80 35 142t92.5 97.5t123 53.5t134.5 18q87 0 171.5 -32.5 t148.5 -94.5l-101 -116q-89 92 -219 92q-52 0 -99.5 -13t-85.5 -50.5t-38 -92.5q0 -25 9.5 -46.5t21.5 -36.5t35.5 -27.5t39.5 -19.5t47 -14.5t43.5 -10t43.5 -7.5q70 -13 124.5 -33t106.5 -55t81 -92.5t30 -134.5q0 -76 -30.5 -138t-81 -100t-114 -58.5t-133.5 -20.5 q-289 0 -426 221z" />
<glyph unicode="t" horiz-adv-x="581" d="M123 328v1001h162v-268h217v-152h-217v-581q-1 -98 75 -162q56 -47 136 -47q29 0 61 6v-141q-46 -4 -63 -4q-164 0 -267.5 94t-103.5 254z" />
<glyph unicode="u" horiz-adv-x="1064" d="M123 332v729h164v-731q0 -88 71 -140.5t166 -54.5q149 0 250 35v891h164v-1004q-219 -77 -414 -77q-77 1 -147.5 23.5t-128 65t-91.5 111t-34 152.5z" />
<glyph unicode="v" horiz-adv-x="980" d="M18 1061h170l213 -621l91 -293h4l86 297l213 617h168l-375 -1061h-195z" />
<glyph unicode="w" horiz-adv-x="1460" d="M27 1061h166l174 -594l71 -305h6l211 882h148l217 -882h6l72 305l174 594h160l-318 -1061h-196l-113 475l-74 354l-74 -356l-114 -473h-197z" />
<glyph unicode="x" horiz-adv-x="989" d="M31 0l366 530l-366 531h200l265 -414l262 414h200l-364 -531l364 -530h-200l-262 406l-265 -406h-200z" />
<glyph unicode="y" horiz-adv-x="1091" d="M123 344v717h168v-721q0 -92 74.5 -146.5t173.5 -56.5q128 0 258 51v873h164v-1098q0 -89 -34.5 -159t-93.5 -112.5t-132 -64.5t-154 -22q-107 0 -211 43t-174 121l112 102q41 -51 113.5 -79t147.5 -28q70 0 126.5 18t96 64.5t39.5 116.5v82q-90 -61 -254 -65h-6 q-77 0 -149 23q-75 24 -134 69t-95 116t-36 156z" />
<glyph unicode="z" horiz-adv-x="958" d="M45 104l621 805h-576v152h741l66 -107l-631 -804h621v-150h-776z" />
<glyph unicode="{" horiz-adv-x="600" d="M72 559v148q137 0 137 272v283q0 122 52 192t145 70h124v-148h-98q-19 0 -30.5 -7.5t-16 -27.5t-5.5 -37t-1 -55v-311q2 -196 -94 -307q96 -106 94 -303v-318q0 -65 11.5 -92t49.5 -27h90v-147h-124q-93 0 -145 70t-52 192v283q0 270 -137 270z" />
<glyph unicode="|" horiz-adv-x="417" d="M127 -346v1866h164v-1866h-164z" />
<glyph unicode="}" horiz-adv-x="602" d="M72 -109h88q40 0 51.5 27t11.5 92v318q-2 197 92 307q-94 104 -92 303v311q0 38 -1 55t-5.5 37t-16 27.5t-30.5 7.5h-98v148h125q93 0 144.5 -70t51.5 -192v-283q0 -272 137 -272v-148q-137 0 -137 -270v-283q0 -122 -51.5 -192t-144.5 -70h-125v147z" />
<glyph unicode="~" horiz-adv-x="1062" d="M98 551q114 211 277 211q98 0 211 -80q83 -53 112 -53q45 0 82.5 38t83.5 109l103 -94q-98 -211 -275 -211q-81 0 -192 76q-3 2 -15 9.5t-15.5 9.5t-14.5 8.5t-15.5 8.5t-13.5 6.5t-14.5 6.5t-13.5 4t-15 3t-14 1q-43 0 -82 -37t-82 -104z" />
<glyph unicode="&#xa1;" horiz-adv-x="428" d="M94 963q0 51 34.5 84.5t86.5 33.5q51 0 85 -33.5t34 -84.5q0 -52 -34 -86.5t-85 -34.5q-53 0 -87 34t-34 87zM129 -360v1069h170v-1069h-170z" />
<glyph unicode="&#xa2;" horiz-adv-x="972" d="M102 348v369q0 149 92 237.5t236 106.5v186h143v-186q101 -11 183.5 -61t134.5 -140l-148 -61q-48 84 -170 104v-739q149 27 187 147l145 -61q-36 -103 -130 -168.5t-202 -81.5v-182h-143v182q-140 24 -234 113.5t-94 234.5zM266 344q-1 -69 45.5 -114.5t118.5 -61.5v729 q-73 -14 -119 -60.5t-45 -119.5v-373z" />
<glyph unicode="&#xa3;" horiz-adv-x="1079" d="M84 0v154h201v516h-201v147h201v232q0 59 12 115.5t42.5 113t76.5 98.5t119.5 68t166.5 26q158 0 306 -133l-121 -112q-46 46 -90 66t-101 20q-63 0 -112 -26t-77 -66.5t-42 -84t-14 -85.5v-232h319v-147h-319v-516h532v-154h-899z" />
<glyph unicode="&#xa4;" horiz-adv-x="1259" d="M115 305l108 107q-104 132 -104 303t104 303q-17 17 -54.5 54t-53.5 52l104 113l113 -113q126 97 299 97q167 0 299 -97q6 6 51.5 52.5t60.5 60.5l103 -113l-109 -106q105 -134 105 -303t-105 -303q18 -16 56 -54l53 -53l-103 -112l-112 112q-134 -96 -299 -96 q-167 0 -299 96q-17 -16 -59 -58.5t-54 -53.5zM279 713q0 -145 103 -248t245 -103q143 0 246.5 103t103.5 248q0 148 -103.5 252t-246.5 104q-142 0 -245 -104t-103 -252z" />
<glyph unicode="&#xa5;" horiz-adv-x="1257" d="M47 1450h197l385 -727l385 727h198l-444 -795h260l-31 -141h-284v-100h317l-31 -142h-286v-270h-168v270h-322l31 142h291v100h-316l31 141h229z" />
<glyph unicode="&#xa6;" horiz-adv-x="438" d="M135 -281v736h168v-736h-168zM135 692v733h168v-733h-168z" />
<glyph unicode="&#xa7;" horiz-adv-x="978" d="M68 -6l153 72q31 -87 101 -134t151 -47q84 0 151.5 45.5t67.5 122.5q0 29 -14.5 55.5t-34 45.5t-56.5 41.5t-63.5 35.5t-74.5 35q-38 17 -56.5 25.5t-54.5 26.5t-54.5 30t-47.5 32.5t-45 38t-35.5 42.5t-29.5 50.5t-17 57t-7 66.5q0 160 177 256q-129 94 -129 242 q0 104 57.5 181t143.5 113.5t186 36.5q115 0 208.5 -54.5t135.5 -166.5l-150 -82q-29 69 -82.5 105.5t-118.5 36.5q-83 0 -147 -46.5t-64 -123.5q0 -28 14 -53.5t32 -43t55.5 -40t61.5 -34t73 -34.5q38 -18 55 -26t52 -26t52.5 -30t46.5 -32t44 -37t34.5 -41.5t28.5 -49 t16 -55.5t7 -64q0 -163 -150 -258q123 -97 123 -237q0 -108 -56 -190t-143 -122.5t-190 -40.5q-137 0 -246 69t-161 206zM276 639q0 -61 30 -95t91 -65v2l195 -92q53 35 93 79t40 89q0 95 -143 170l-136 78q-170 -63 -170 -166z" />
<glyph unicode="&#xa8;" horiz-adv-x="575" d="M-6 1683q0 46 31 77.5t75 31.5t75.5 -31.5t31.5 -77.5q0 -44 -31.5 -75t-75.5 -31t-75 31t-31 75zM365 1683q0 46 30.5 77.5t75.5 31.5q44 0 75.5 -31.5t31.5 -77.5q0 -44 -31.5 -75t-75.5 -31q-45 0 -75.5 30.5t-30.5 75.5z" />
<glyph unicode="&#xa9;" horiz-adv-x="1673" d="M86 715q0 152 59.5 291t160.5 239t240 159.5t292 59.5t291.5 -59.5t238.5 -159.5t159.5 -238.5t59.5 -291.5t-59.5 -291.5t-159.5 -239t-239 -160t-291 -59.5q-153 0 -292 59.5t-240 160t-160.5 239.5t-59.5 291zM244 715q0 -160 79.5 -297t216.5 -217t298 -80 q160 0 296.5 80t216 217t79.5 297q0 161 -79.5 298t-216 216.5t-296.5 79.5q-161 0 -298 -79.5t-216.5 -216.5t-79.5 -298zM455 563q0 -80 33 -145t88 -105t122.5 -61t139.5 -21q124 0 227.5 62t142.5 180l-139 68q-21 -76 -86.5 -117t-144.5 -41q-94 0 -162 46t-68 130v291 q0 59 34 100.5t85 59.5t111 18q72 0 132.5 -25t86.5 -73l12 -19l125 74q-55 95 -151.5 146t-204.5 51q-72 0 -139.5 -21t-122.5 -61t-88 -105t-33 -145v-287z" />
<glyph unicode="&#xaa;" horiz-adv-x="786" d="M90 942q2 225 299 225q65 0 121 -30v71q0 41 -40.5 68t-92.5 27q-43 0 -91 -21t-81 -61l-101 94q61 67 135 101t146 34q117 0 201 -64.5t84 -181.5v-467q-154 -50 -310 -47q-119 2 -194.5 67.5t-75.5 184.5zM250 942q0 -52 32 -81.5t80 -31.5q54 0 148 11v190 q-79 17 -125 17q-58 0 -96 -25.5t-39 -79.5z" />
<glyph unicode="&#xab;" horiz-adv-x="915" d="M68 600l290 432l142 -86l-238 -346q19 -28 107 -154.5t131 -191.5l-142 -84zM395 600l289 432l141 -86l-235 -346q165 -240 235 -346l-141 -84z" />
<glyph unicode="&#xac;" horiz-adv-x="1224" d="M115 668v161h981v-499h-162v338h-819z" />
<glyph unicode="&#xad;" horiz-adv-x="739" d="M102 414v168h535v-168h-535z" />
<glyph unicode="&#xae;" horiz-adv-x="1671" d="M86 715q0 152 59.5 291t160 239t239 159.5t291.5 59.5t291.5 -59.5t238.5 -159.5t159.5 -238.5t59.5 -291.5t-59.5 -291.5t-159.5 -239t-239 -160t-291 -59.5q-153 0 -291.5 59.5t-239 160t-160 239t-59.5 291.5zM250 715q0 -158 78.5 -292.5t213.5 -213t294 -78.5 q158 0 292.5 78.5t212.5 213t78 292.5q0 159 -78 294t-212.5 213t-292.5 78q-159 0 -294 -78t-213.5 -213t-78.5 -294zM557 319v801h307q146 0 221.5 -66t75.5 -186q0 -102 -50 -164.5t-132 -87.5l213 -294h-174l-209 286h-104v-289h-148zM705 748h102q43 0 74 3.5t63 15 t49 37t17 64.5q0 57 -45 85t-107 28h-153v-233z" />
<glyph unicode="&#xaf;" horiz-adv-x="491" d="M-25 1595v148h527v-148h-527z" />
<glyph unicode="&#xb0;" horiz-adv-x="735" d="M80 1161q0 120 84.5 203.5t204.5 83.5q119 0 202.5 -83.5t83.5 -203.5q0 -118 -84.5 -203.5t-201.5 -85.5q-120 0 -204.5 84.5t-84.5 204.5zM231 1159q0 -55 41 -95t97 -40q55 0 95 40t40 95q0 56 -40 96.5t-95 40.5q-56 0 -97 -41t-41 -96z" />
<glyph unicode="&#xb1;" horiz-adv-x="1124" d="M117 133v162h891v-162h-891zM121 737v164h354v338h166v-338h363v-164h-363v-340h-166v340h-354z" />
<glyph unicode="&#xb2;" horiz-adv-x="847" d="M96 1245q41 105 123.5 155t192.5 50q136 0 227.5 -76.5t91.5 -187.5q0 -121 -117 -223h2l-278 -254h393v-154h-586l-45 109l410 393q67 49 73.5 110t-41.5 103t-126 41q-69 -1 -122.5 -39.5t-74.5 -81.5z" />
<glyph unicode="&#xb3;" horiz-adv-x="815" d="M76 770l133 66q71 -136 197 -136q76 0 125 35t49 109q-2 52 -42.5 86.5t-107.5 34.5h-90v116h90q47 0 81 33.5t34 89.5q0 43 -39 73t-100 30q-53 0 -91 -21t-71 -80l-133 58q77 188 295 188q129 0 207.5 -68t78.5 -182q0 -48 -27 -95.5t-73 -72.5q65 -24 102 -80t37 -123 q-5 -124 -94.5 -200.5t-230.5 -73.5q-27 0 -55 3.5t-67.5 17t-74 35t-71 62.5t-62.5 95z" />
<glyph unicode="&#xb4;" horiz-adv-x="436" d="M121 1548l174 273h215l-209 -273h-180z" />
<glyph unicode="&#xb5;" horiz-adv-x="1073" d="M123 -442v1491h172v-652q0 -262 199 -262q123 0 202.5 87.5t79.5 252.5v574h172l4 -1053h-166l-2 98q-46 -56 -122 -86.5t-168 -30.5q-116 0 -201 68v-487h-170z" />
<glyph unicode="&#xb6;" horiz-adv-x="1157" d="M51 967q0 89 32 170.5t92.5 147.5t158.5 105.5t219 39.5h469v-1676h-168v1528h-188v-1528h-170v762q-107 4 -193.5 44.5t-140.5 104t-82.5 141t-28.5 161.5z" />
<glyph unicode="&#xb7;" horiz-adv-x="462" d="M113 645q0 51 34 86t86 35q51 0 85 -35t34 -86t-34 -86t-85 -35q-52 0 -86 35t-34 86z" />
<glyph unicode="&#xb8;" horiz-adv-x="491" d="M-16 -432l45 110q85 -45 159 -39t78 62q3 44 -38 60t-111 -3l-27 25l86 215h131l-51 -129q90 3 132 -43t36 -119q-7 -80 -54.5 -128.5t-114 -59t-138.5 2t-133 46.5z" />
<glyph unicode="&#xb9;" horiz-adv-x="528" d="M45 1194l221 256h133v-879h-151v650l-88 -119z" />
<glyph unicode="&#xba;" horiz-adv-x="841" d="M96 954v226q0 86 49 149t121 92t154 29q83 0 155.5 -29t121 -92t48.5 -149v-226q0 -86 -48.5 -149t-121 -92t-155.5 -29q-82 0 -154 29t-121 92t-49 149zM250 954q0 -42 27.5 -70t63.5 -38t79 -10q70 0 121 28t51 90v226q0 62 -51 90t-121 28q-43 0 -79 -10t-63.5 -38 t-27.5 -70v-226z" />
<glyph unicode="&#xbb;" horiz-adv-x="923" d="M90 252l238 348q-19 28 -107 154.5t-131 191.5l141 86l291 -432l-291 -430zM426 252l236 348q-203 296 -236 346l141 86l289 -432l-289 -430z" />
<glyph unicode="&#xbc;" horiz-adv-x="1480" d="M47 1194l115 -92l88 119v-650h151v879h-133zM180 6l914 1499l137 -82l-916 -1499zM700 330l86 -125h390v-209h153v209h80v145h-80v563h-145zM907 350l275 338l-6 -338h-269z" />
<glyph unicode="&#xbd;" horiz-adv-x="1599" d="M49 1194l115 -92l88 119v-650h151v879h-133zM158 6l913 1499l135 -82l-915 -1499zM883 690l123 -55q21 43 74 81.5t122 39.5q78 1 126 -41t41.5 -103t-73.5 -110l-409 -393l45 -109h586v154h-394l279 254h-2q117 102 117 223q0 39 -15 86q-38 85 -123 131.5t-182 46.5 q-109 0 -191.5 -50t-123.5 -155z" />
<glyph unicode="&#xbe;" horiz-adv-x="1648" d="M55 770q26 -54 62.5 -95t71 -62.5t74 -35t67.5 -17t55 -3.5q142 -3 231.5 73.5t94.5 200.5q0 67 -37.5 123t-102.5 80q46 25 73.5 73t27.5 95q0 114 -79 182t-208 68q-218 0 -295 -188l133 -58q33 59 71 80t91 21q61 0 100 -30t39 -73q0 -56 -33.5 -89.5t-80.5 -33.5h-91 v-116h91q67 0 107 -34t42 -87q0 -74 -49 -109t-125 -35q-126 0 -197 136zM354 6l914 1499l135 -82l-916 -1499zM877 330l86 -125h389v-209h153v209h80v145h-80v563h-145zM1083 350l275 338l-6 -338h-269z" />
<glyph unicode="&#xbf;" horiz-adv-x="985" d="M59 14q1 98 34 177t90.5 131t127 84.5t152.5 48.5q2 54 7 146t7 140h146l12 -428q-107 -1 -199.5 -35.5t-152.5 -104.5t-58 -161q3 -122 91.5 -189t211.5 -67q79 0 156 36t131 102l129 -101l-18 -22q-69 -87 -176 -134t-226 -47q-91 0 -173.5 27.5t-148.5 78.5 t-105 133.5t-38 184.5zM438 971q0 46 32.5 78t78.5 32t78 -32t32 -78t-32 -78.5t-78 -32.5t-78.5 32.5t-32.5 78.5z" />
<glyph unicode="&#xc0;" horiz-adv-x="1267" d="M8 0l520 1450h209l525 -1450h-181l-168 465h-559q-17 -49 -76 -213.5t-88 -251.5h-182zM358 1825h220l167 -275h-167zM412 637h442q-43 121 -114 324.5t-107 304.5q-147 -423 -221 -629z" />
<glyph unicode="&#xc1;" horiz-adv-x="1267" d="M8 0l520 1450h209l525 -1450h-181l-168 465h-559q-17 -49 -76 -213.5t-88 -251.5h-182zM412 637h442q-43 121 -114 324.5t-107 304.5q-147 -423 -221 -629zM512 1548l174 273h215l-209 -273h-180z" />
<glyph unicode="&#xc2;" horiz-adv-x="1267" d="M8 0l520 1450h209l525 -1450h-181l-168 465h-559q-17 -49 -76 -213.5t-88 -251.5h-182zM311 1548l260 273h152l240 -273h-195l-125 142l-131 -142h-201zM412 637h442q-43 121 -114 324.5t-107 304.5q-147 -423 -221 -629z" />
<glyph unicode="&#xc3;" horiz-adv-x="1267" d="M8 0l520 1450h209l525 -1450h-181l-168 465h-559q-17 -49 -76 -213.5t-88 -251.5h-182zM336 1624q17 86 74 139.5t125 53.5q46 0 89 -25.5t75 -50.5t51 -25q21 0 43.5 17t33.5 57l121 -43q-25 -96 -74.5 -140t-111.5 -44q-39 0 -78.5 25.5t-77 51t-71.5 25.5 q-23 0 -47.5 -24t-34.5 -60zM412 637h442q-43 121 -114 324.5t-107 304.5q-147 -423 -221 -629z" />
<glyph unicode="&#xc4;" horiz-adv-x="1267" d="M8 0l520 1450h209l525 -1450h-181l-168 465h-559q-17 -49 -76 -213.5t-88 -251.5h-182zM342 1683q0 46 31.5 77.5t75.5 31.5t75 -31.5t31 -77.5q0 -44 -31 -75t-75 -31t-75.5 31t-31.5 75zM412 637h442q-43 121 -114 324.5t-107 304.5q-147 -423 -221 -629zM713 1683 q0 46 30.5 77.5t75.5 31.5q44 0 75.5 -31.5t31.5 -77.5q0 -44 -31.5 -75t-75.5 -31q-45 0 -75.5 30.5t-30.5 75.5z" />
<glyph unicode="&#xc5;" horiz-adv-x="1267" d="M8 0l518 1442q-52 30 -82 80.5t-30 109.5q0 90 64.5 154.5t154.5 64.5q89 0 151 -66.5t62 -154.5q0 -56 -29.5 -106t-77.5 -80l523 -1444h-181l-168 465h-559q-17 -49 -76 -213.5t-88 -251.5h-182zM412 637h442q-43 121 -114 324.5t-107 304.5q-147 -423 -221 -629z M537 1630q0 -41 27.5 -69.5t66.5 -28.5q41 0 67.5 29t26.5 71t-26.5 71.5t-67.5 29.5q-40 0 -67 -31t-27 -72z" />
<glyph unicode="&#xc6;" horiz-adv-x="1640" d="M-16 0l739 1450h831v-172h-593v-469h534v-170h-534v-471h593v-168h-766v465h-376l-232 -465h-196zM483 621h305l11 659z" />
<glyph unicode="&#xc7;" horiz-adv-x="1220" d="M109 432v580q0 108 47.5 197t126 145t176.5 86t203 30q107 0 205 -30.5t180.5 -97.5t126.5 -162l-154 -74q-49 94 -149.5 145.5t-215.5 51.5q-96 0 -179.5 -31.5t-139 -98.5t-55.5 -157v-584q0 -90 55.5 -155t138.5 -95t180 -30q118 0 217.5 50.5t147.5 143.5l154 -72 q-62 -129 -187 -204t-274 -88l-45 -113q90 3 132 -43t36 -119q-7 -80 -55 -128.5t-114.5 -59t-138.5 2t-133 46.5l45 110q85 -45 159.5 -39t78.5 62q3 43 -38.5 60t-111.5 -3l-26 25l80 201q-94 10 -178 43t-150.5 87t-105.5 136.5t-39 181.5z" />
<glyph unicode="&#xc8;" horiz-adv-x="1169" d="M152 0v1450h929v-172h-757v-467h698v-172h-698v-467h757v-172h-929zM342 1829h219l168 -275h-168z" />
<glyph unicode="&#xc9;" horiz-adv-x="1169" d="M152 0v1450h929v-172h-757v-467h698v-172h-698v-467h757v-172h-929zM496 1552l174 273h215l-209 -273h-180z" />
<glyph unicode="&#xca;" horiz-adv-x="1169" d="M152 0v1450h929v-172h-757v-467h698v-172h-698v-467h757v-172h-929zM295 1552l260 273h152l239 -273h-194l-125 142l-131 -142h-201z" />
<glyph unicode="&#xcb;" horiz-adv-x="1169" d="M152 0v1450h929v-172h-757v-467h698v-172h-698v-467h757v-172h-929zM326 1688q0 46 31 77t75 31t75.5 -31t31.5 -77q0 -44 -31.5 -75.5t-75.5 -31.5t-75 31.5t-31 75.5zM696 1688q0 46 30.5 77t76.5 31q44 0 75 -31t31 -77q0 -44 -31 -75.5t-75 -31.5q-45 0 -76 31 t-31 76z" />
<glyph unicode="&#xcc;" horiz-adv-x="473" d="M-37 1823h219l168 -275h-168zM152 0v1450h170v-1450h-170z" />
<glyph unicode="&#xcd;" horiz-adv-x="473" d="M117 1546l174 273h215l-209 -273h-180zM152 0v1450h170v-1450h-170z" />
<glyph unicode="&#xce;" horiz-adv-x="473" d="M-84 1546l260 273h152l239 -273h-194l-125 142l-131 -142h-201zM152 0v1450h170v-1450h-170z" />
<glyph unicode="&#xcf;" horiz-adv-x="473" d="M-53 1681q0 46 31 77.5t75 31.5t75.5 -31.5t31.5 -77.5q0 -44 -31.5 -75t-75.5 -31t-75 31t-31 75zM152 0v1450h170v-1450h-170zM317 1681q0 46 30.5 77.5t76.5 31.5q44 0 75 -31.5t31 -77.5q0 -44 -31 -75t-75 -31q-46 0 -76.5 30.5t-30.5 75.5z" />
<glyph unicode="&#xd0;" horiz-adv-x="1314" d="M37 637v160h123v653h493q84 0 162.5 -15.5t149 -50t123 -84t83.5 -123.5t31 -163v-580q0 -89 -31 -162t-83.5 -123t-123 -84t-149 -49.5t-162.5 -15.5h-493v637h-123zM332 172h321q73 0 139 15t120.5 45t87 82t32.5 120v580q0 68 -32.5 120.5t-87 83t-120.5 45.5t-139 15 h-321v-481h246v-160h-246v-465z" />
<glyph unicode="&#xd1;" horiz-adv-x="1404" d="M152 0v1450h184l745 -1198v1198h172v-1450h-217l-712 1149v-1149h-172zM410 1624q17 86 73.5 139.5t124.5 53.5q46 0 89 -25.5t75 -50.5t51 -25q21 0 44 17t34 57l121 -43q-25 -96 -74.5 -140t-111.5 -44q-39 0 -78.5 25.5t-77.5 51t-72 25.5q-23 0 -47.5 -24t-34.5 -60z " />
<glyph unicode="&#xd2;" horiz-adv-x="1378" d="M109 436v580q0 88 32.5 163t87.5 128t129.5 90t158 55t171.5 18t171.5 -18t157.5 -55t130 -90t88.5 -128t32.5 -163v-580q0 -110 -49.5 -198.5t-132.5 -143.5t-185 -84.5t-213 -29.5t-213.5 29.5t-185 84.5t-131.5 143.5t-49 198.5zM279 438q0 -91 60 -157.5t151 -97.5 t198 -31q106 0 197.5 31t152 97.5t60.5 157.5v578q0 73 -35 129.5t-94.5 90t-131.5 50.5t-151 17q-79 -1 -150.5 -18.5t-129.5 -51.5t-92.5 -90t-34.5 -127v-578zM414 1825h219l168 -275h-168z" />
<glyph unicode="&#xd3;" horiz-adv-x="1378" d="M109 436v580q0 88 32.5 163t87.5 128t129.5 90t158 55t171.5 18t171.5 -18t157.5 -55t130 -90t88.5 -128t32.5 -163v-580q0 -110 -49.5 -198.5t-132.5 -143.5t-185 -84.5t-213 -29.5t-213.5 29.5t-185 84.5t-131.5 143.5t-49 198.5zM279 438q0 -91 60 -157.5t151 -97.5 t198 -31q106 0 197.5 31t152 97.5t60.5 157.5v578q0 73 -35 129.5t-94.5 90t-131.5 50.5t-151 17q-79 -1 -150.5 -18.5t-129.5 -51.5t-92.5 -90t-34.5 -127v-578zM567 1548l174 273h215l-208 -273h-181z" />
<glyph unicode="&#xd4;" horiz-adv-x="1378" d="M109 436v580q0 88 32.5 163t87.5 128t129.5 90t158 55t171.5 18t171.5 -18t157.5 -55t130 -90t88.5 -128t32.5 -163v-580q0 -110 -49.5 -198.5t-132.5 -143.5t-185 -84.5t-213 -29.5t-213.5 29.5t-185 84.5t-131.5 143.5t-49 198.5zM279 438q0 -91 60 -157.5t151 -97.5 t198 -31q106 0 197.5 31t152 97.5t60.5 157.5v578q0 73 -35 129.5t-94.5 90t-131.5 50.5t-151 17q-79 -1 -150.5 -18.5t-129.5 -51.5t-92.5 -90t-34.5 -127v-578zM367 1548l260 273h151l240 -273h-195l-125 142l-131 -142h-200z" />
<glyph unicode="&#xd5;" horiz-adv-x="1378" d="M109 436v580q0 88 32.5 163t87.5 128t129.5 90t158 55t171.5 18t171.5 -18t157.5 -55t130 -90t88.5 -128t32.5 -163v-580q0 -110 -49.5 -198.5t-132.5 -143.5t-185 -84.5t-213 -29.5t-213.5 29.5t-185 84.5t-131.5 143.5t-49 198.5zM279 438q0 -91 60 -157.5t151 -97.5 t198 -31q106 0 197.5 31t152 97.5t60.5 157.5v578q0 73 -35 129.5t-94.5 90t-131.5 50.5t-151 17q-79 -1 -150.5 -18.5t-129.5 -51.5t-92.5 -90t-34.5 -127v-578zM391 1624q17 86 74 139.5t125 53.5q46 0 89 -25.5t75 -50.5t51 -25q21 0 44 17t34 57l121 -43 q-25 -96 -74.5 -140t-112.5 -44q-39 0 -78.5 25.5t-77 51t-71.5 25.5q-23 0 -47.5 -24t-34.5 -60z" />
<glyph unicode="&#xd6;" horiz-adv-x="1378" d="M109 436v580q0 88 32.5 163t87.5 128t129.5 90t158 55t171.5 18t171.5 -18t157.5 -55t130 -90t88.5 -128t32.5 -163v-580q0 -110 -49.5 -198.5t-132.5 -143.5t-185 -84.5t-213 -29.5t-213.5 29.5t-185 84.5t-131.5 143.5t-49 198.5zM279 438q0 -91 60 -157.5t151 -97.5 t198 -31q106 0 197.5 31t152 97.5t60.5 157.5v578q0 73 -35 129.5t-94.5 90t-131.5 50.5t-151 17q-79 -1 -150.5 -18.5t-129.5 -51.5t-92.5 -90t-34.5 -127v-578zM397 1683q0 46 31.5 77.5t75.5 31.5t75 -31.5t31 -77.5q0 -44 -31 -75t-75 -31t-75.5 31t-31.5 75zM768 1683 q0 46 30.5 77.5t75.5 31.5q44 0 75.5 -31.5t31.5 -77.5q0 -44 -31.5 -75t-75.5 -31q-45 0 -75.5 30.5t-30.5 75.5z" />
<glyph unicode="&#xd7;" horiz-adv-x="1044" d="M90 932l117 117l319 -320l312 313l114 -116l-307 -310l305 -305l-116 -118l-308 307l-315 -316l-115 119l312 311z" />
<glyph unicode="&#xd8;" horiz-adv-x="1378" d="M109 436v580q0 88 32.5 163t87.5 128t129.5 90t158 55t171.5 18q104 0 199 -24l63 162l121 -41l-65 -164q120 -57 191 -155t71 -232v-580q0 -110 -49.5 -198.5t-132.5 -143.5t-185 -84.5t-213 -29.5q-129 0 -229 32l-66 -164l-117 39l68 172q-110 60 -172.5 155 t-62.5 222zM279 436q0 -137 129 -215l417 1067q-68 15 -139 15q-79 -1 -150.5 -18.5t-129.5 -51.5t-92.5 -90t-34.5 -127v-580zM520 172q83 -22 168 -22q106 0 197.5 31t152 97.5t60.5 157.5v580q0 155 -152 231z" />
<glyph unicode="&#xd9;" horiz-adv-x="1384" d="M141 442v1008h172v-1008q0 -94 56 -161.5t140 -98t183 -30.5q98 0 182 30.5t140.5 98t56.5 161.5v1008h172v-1008q0 -89 -31 -165.5t-84 -130t-123.5 -92t-150 -56.5t-162.5 -18q-106 0 -203 29.5t-175.5 85.5t-125.5 146t-47 201zM418 1825h219l168 -275h-168z" />
<glyph unicode="&#xda;" horiz-adv-x="1384" d="M141 442v1008h172v-1008q0 -94 56 -161.5t140 -98t183 -30.5q98 0 182 30.5t140.5 98t56.5 161.5v1008h172v-1008q0 -89 -31 -165.5t-84 -130t-123.5 -92t-150 -56.5t-162.5 -18q-106 0 -203 29.5t-175.5 85.5t-125.5 146t-47 201zM571 1548l174 273h216l-209 -273h-181z " />
<glyph unicode="&#xdb;" horiz-adv-x="1384" d="M141 442v1008h172v-1008q0 -94 56 -161.5t140 -98t183 -30.5q98 0 182 30.5t140.5 98t56.5 161.5v1008h172v-1008q0 -89 -31 -165.5t-84 -130t-123.5 -92t-150 -56.5t-162.5 -18q-106 0 -203 29.5t-175.5 85.5t-125.5 146t-47 201zM371 1548l260 273h151l240 -273h-195 l-125 142l-131 -142h-200z" />
<glyph unicode="&#xdc;" horiz-adv-x="1384" d="M141 442v1008h172v-1008q0 -94 56 -161.5t140 -98t183 -30.5q98 0 182 30.5t140.5 98t56.5 161.5v1008h172v-1008q0 -89 -31 -165.5t-84 -130t-123.5 -92t-150 -56.5t-162.5 -18q-106 0 -203 29.5t-175.5 85.5t-125.5 146t-47 201zM401 1683q0 46 31.5 77.5t75.5 31.5 t75 -31.5t31 -77.5q0 -44 -31 -75t-75 -31t-75.5 31t-31.5 75zM772 1683q0 46 30.5 77.5t76.5 31.5q44 0 75 -31.5t31 -77.5q0 -44 -31 -75t-75 -31q-45 0 -76 30.5t-31 75.5z" />
<glyph unicode="&#xdd;" horiz-adv-x="1185" d="M2 1450h199l393 -702l389 702h201l-506 -885v-565h-172v565zM473 1548l174 273h215l-209 -273h-180z" />
<glyph unicode="&#xde;" horiz-adv-x="1251" d="M152 0v1450h170v-262h383q118 0 213.5 -40t154 -106.5t90 -148.5t31.5 -170q0 -89 -31 -171t-90 -147.5t-154 -105t-212 -39.5h-385v-260h-170zM322 432h383q152 0 235.5 86.5t83.5 204.5q0 120 -84.5 208t-234.5 85h-383v-584z" />
<glyph unicode="&#xdf;" horiz-adv-x="1196" d="M131 -2v1092q0 93 39.5 170t105 125.5t147.5 75t169 26.5q88 0 169.5 -24.5t147.5 -70.5t106 -121.5t40 -168.5q0 -202 -131 -305q194 -94 194 -361q-2 -109 -46.5 -197.5t-117.5 -144.5t-165 -86t-193 -28q-112 3 -215 53l2 182q98 -63 211 -63q145 -3 248.5 73.5 t103.5 210.5q0 136 -87.5 202t-229.5 64h-207v164h207q109 0 182.5 62t73.5 174q0 59 -25.5 103.5t-68.5 69t-93 36.5t-106 12q-76 0 -140.5 -23t-109.5 -77.5t-45 -132.5v-1092h-166z" />
<glyph unicode="&#xe0;" d="M68 311q1 112 58 190t144.5 113t196.5 35q133 0 254 -51v141q0 88 -74 139.5t-176 51.5q-74 0 -145.5 -29.5t-116.5 -85.5l-103 100q72 80 173 123t204 43q78 0 149 -21.5t128 -63t91 -108t34 -149.5v-688q-214 -74 -439 -71q-169 2 -273.5 85t-104.5 246zM229 311 q0 -96 61 -143t161 -49q155 -3 270 20v340q-118 41 -238 41q-70 0 -125 -19.5t-91.5 -68t-37.5 -121.5zM281 1456h208l168 -274h-157z" />
<glyph unicode="&#xe1;" d="M68 311q1 112 58 190t144.5 113t196.5 35q133 0 254 -51v141q0 88 -74 139.5t-176 51.5q-74 0 -145.5 -29.5t-116.5 -85.5l-103 100q72 80 173 123t204 43q78 0 149 -21.5t128 -63t91 -108t34 -149.5v-688q-214 -74 -439 -71q-169 2 -273.5 85t-104.5 246zM229 311 q0 -96 61 -143t161 -49q155 -3 270 20v340q-118 41 -238 41q-70 0 -125 -19.5t-91.5 -68t-37.5 -121.5zM383 1180l174 272h199l-209 -272h-164z" />
<glyph unicode="&#xe2;" d="M68 311q1 112 58 190t144.5 113t196.5 35q133 0 254 -51v141q0 88 -74 139.5t-176 51.5q-74 0 -145.5 -29.5t-116.5 -85.5l-103 100q72 80 173 123t204 43q78 0 149 -21.5t128 -63t91 -108t34 -149.5v-688q-214 -74 -439 -71q-169 2 -273.5 85t-104.5 246zM182 1180 l260 272h152l240 -272h-195l-125 141l-131 -141h-201zM229 311q0 -96 61 -143t161 -49q155 -3 270 20v340q-118 41 -238 41q-70 0 -125 -19.5t-91.5 -68t-37.5 -121.5z" />
<glyph unicode="&#xe3;" d="M68 311q1 112 58 190t144.5 113t196.5 35q133 0 254 -51v141q0 88 -74 139.5t-176 51.5q-74 0 -145.5 -29.5t-116.5 -85.5l-103 100q72 80 173 123t204 43q78 0 149 -21.5t128 -63t91 -108t34 -149.5v-688q-214 -74 -439 -71q-169 2 -273.5 85t-104.5 246zM199 1253 q17 83 71.5 135t120.5 52q35 0 69.5 -15t56.5 -33.5t45 -33.5t38 -15q21 0 43 16.5t33 55.5l117 -43q-23 -93 -71.5 -135.5t-109.5 -42.5q-38 0 -76.5 24.5t-75 49t-69.5 24.5q-21 0 -45.5 -23t-34.5 -57zM229 311q0 -96 61 -143t161 -49q155 -3 270 20v340q-118 41 -238 41 q-70 0 -125 -19.5t-91.5 -68t-37.5 -121.5z" />
<glyph unicode="&#xe4;" d="M68 311q1 112 58 190t144.5 113t196.5 35q133 0 254 -51v141q0 88 -74 139.5t-176 51.5q-74 0 -145.5 -29.5t-116.5 -85.5l-103 100q72 80 173 123t204 43q78 0 149 -21.5t128 -63t91 -108t34 -149.5v-688q-214 -74 -439 -71q-169 2 -273.5 85t-104.5 246zM213 1315 q0 46 31 77t75 31q45 0 76 -31.5t31 -76.5q0 -44 -31.5 -75.5t-75.5 -31.5t-75 31.5t-31 75.5zM229 311q0 -96 61 -143t161 -49q155 -3 270 20v340q-118 41 -238 41q-70 0 -125 -19.5t-91.5 -68t-37.5 -121.5zM584 1315q0 46 30 77t76 31q44 0 75.5 -31.5t31.5 -76.5 q0 -44 -31.5 -75.5t-75.5 -31.5q-45 0 -75.5 31t-30.5 76z" />
<glyph unicode="&#xe5;" d="M68 311q1 112 58 190t144.5 113t196.5 35q133 0 254 -51v141q0 88 -74 139.5t-176 51.5q-74 0 -145.5 -29.5t-116.5 -85.5l-103 100q72 80 173 123t204 43q78 0 149 -21.5t128 -63t91 -108t34 -149.5v-688q-214 -74 -439 -71q-169 2 -273.5 85t-104.5 246zM229 311 q0 -96 61 -143t161 -49q155 -3 270 20v340q-118 41 -238 41q-70 0 -125 -19.5t-91.5 -68t-37.5 -121.5zM293 1350q0 86 61 143t150 57q87 0 146 -59t59 -143q0 -82 -59.5 -140.5t-145.5 -58.5q-88 0 -149.5 57.5t-61.5 143.5zM397 1348q0 -45 30.5 -72t74.5 -27q46 0 75 28 t29 73t-29 72.5t-75 27.5t-75.5 -29t-29.5 -73z" />
<glyph unicode="&#xe6;" horiz-adv-x="1619" d="M68 338q0 84 33 152t88.5 110t124.5 64t145 22q152 0 262 -68v119q0 87 -73.5 135t-176.5 48q-72 0 -140.5 -30t-111.5 -85l-113 108q71 81 171.5 123.5t203.5 42.5q97 0 190 -46.5t136 -123.5q43 84 132 126t189 42q79 0 150.5 -22.5t130 -65t93 -111.5t34.5 -155v-260 h-653v-135q0 -89 72.5 -138t172.5 -49q79 0 147 37t97 107l148 -72q-53 -112 -161 -172.5t-231 -60.5q-86 0 -167 27.5t-138 80.5q-138 -108 -346 -108q-81 0 -152.5 21.5t-130 63.5t-92.5 112.5t-34 160.5zM231 338q1 -67 37 -113.5t89.5 -66t121.5 -19.5q141 0 260 72 q-18 53 -18 121v162q-117 49 -232 49q-53 0 -97.5 -10.5t-81 -33t-57.5 -64t-22 -97.5zM883 594h491v133q0 88 -73 137t-173 49q-63 0 -117 -19t-90.5 -61t-37.5 -100v-139z" />
<glyph unicode="&#xe7;" horiz-adv-x="950" d="M96 334v393q0 86 35 155t94 111.5t131 65t150 22.5q117 0 220 -54.5t161 -156.5l-133 -79l-15 20q-28 53 -92.5 80t-140.5 27q-100 0 -173 -50t-73 -141v-397q0 -88 73 -137.5t173 -49.5q85 0 155 43t93 125l149 -71q-38 -112 -131 -177.5t-209 -78.5l-45 -115 q90 3 132 -43t36 -119q-7 -80 -54.5 -128.5t-114 -59t-138.5 2t-133 46.5l45 110q85 -45 159 -39t78 62q3 44 -38 60t-111 -3l-27 25l80 201q-143 22 -239.5 112t-96.5 238z" />
<glyph unicode="&#xe8;" d="M98 332v397q0 69 23 127.5t63 99.5t92.5 69.5t111.5 42t122 13.5q61 0 119 -13.5t110 -42t91 -69.5t62 -99.5t23 -127.5v-280h-651v-130q0 -91 72 -139.5t174 -48.5q77 0 144 36.5t98 106.5l143 -61q-53 -113 -158.5 -173t-226.5 -60q-79 0 -151.5 22.5t-131 64.5 t-94 111t-35.5 154zM236 1456h219l168 -274h-168zM264 586h496v151q0 89 -76 142t-174 53q-107 0 -177 -53t-69 -146v-147z" />
<glyph unicode="&#xe9;" d="M98 332v397q0 69 23 127.5t63 99.5t92.5 69.5t111.5 42t122 13.5q61 0 119 -13.5t110 -42t91 -69.5t62 -99.5t23 -127.5v-280h-651v-130q0 -91 72 -139.5t174 -48.5q77 0 144 36.5t98 106.5l143 -61q-53 -113 -158.5 -173t-226.5 -60q-79 0 -151.5 22.5t-131 64.5 t-94 111t-35.5 154zM264 586h496v151q0 89 -76 142t-174 53q-107 0 -177 -53t-69 -146v-147zM389 1180l174 272h215l-209 -272h-180z" />
<glyph unicode="&#xea;" d="M98 332v397q0 69 23 127.5t63 99.5t92.5 69.5t111.5 42t122 13.5q61 0 119 -13.5t110 -42t91 -69.5t62 -99.5t23 -127.5v-280h-651v-130q0 -91 72 -139.5t174 -48.5q77 0 144 36.5t98 106.5l143 -61q-53 -113 -158.5 -173t-226.5 -60q-79 0 -151.5 22.5t-131 64.5 t-94 111t-35.5 154zM174 1180l260 272h152l239 -272h-188l-131 149l-137 -149h-195zM264 586h496v151q0 89 -76 142t-174 53q-107 0 -177 -53t-69 -146v-147z" />
<glyph unicode="&#xeb;" d="M98 332v397q0 69 23 127.5t63 99.5t92.5 69.5t111.5 42t122 13.5q61 0 119 -13.5t110 -42t91 -69.5t62 -99.5t23 -127.5v-280h-651v-130q0 -91 72 -139.5t174 -48.5q77 0 144 36.5t98 106.5l143 -61q-53 -113 -158.5 -173t-226.5 -60q-79 0 -151.5 22.5t-131 64.5 t-94 111t-35.5 154zM219 1315q0 45 31.5 76.5t75.5 31.5t75 -31t31 -77q0 -44 -31 -75.5t-75 -31.5t-75.5 31.5t-31.5 75.5zM264 586h496v151q0 89 -76 142t-174 53q-107 0 -177 -53t-69 -146v-147zM590 1315q0 46 30 77t76 31q44 0 75.5 -31.5t31.5 -76.5 q0 -44 -31.5 -75.5t-75.5 -31.5q-45 0 -75.5 31t-30.5 76z" />
<glyph unicode="&#xec;" horiz-adv-x="434" d="M-57 1436h219l168 -275h-168zM131 0v1061h172v-1061h-172z" />
<glyph unicode="&#xed;" horiz-adv-x="434" d="M96 1159l174 273h215l-209 -273h-180zM131 0v1061h172v-1061h-172z" />
<glyph unicode="&#xee;" horiz-adv-x="434" d="M-104 1159l260 273h151l240 -273h-195l-125 141l-131 -141h-200zM131 0v1061h172v-1061h-172z" />
<glyph unicode="&#xef;" horiz-adv-x="434" d="M-45 1294q0 46 31 77.5t75 31.5t75.5 -31.5t31.5 -77.5q0 -44 -31.5 -75t-75.5 -31t-75 31t-31 75zM131 0v1061h172v-1061h-172zM264 1294q0 46 30.5 77.5t76.5 31.5q44 0 75 -31.5t31 -77.5q0 -44 -31 -75t-75 -31q-45 0 -76 31t-31 75z" />
<glyph unicode="&#xf0;" horiz-adv-x="1032" d="M96 330v303q0 109 59.5 191t150 121t194.5 38q137 0 243 -45v162q0 106 -114 164l-49 -154l-121 39l45 139q-74 2 -144 -26.5t-112 -81.5l-115 104q80 90 192 131.5t228 30.5l41 129l121 -41l-37 -117q103 -40 165 -119.5t62 -197.5v-1034l-127 -39q-173 -47 -286 -47 q-75 1 -145 23.5t-126.5 65t-90.5 110.5t-34 151zM258 317q0 -90 69.5 -138t166.5 -48q129 0 249 49v594q-121 47 -247 47q-98 -2 -168 -50.5t-70 -137.5v-316z" />
<glyph unicode="&#xf1;" horiz-adv-x="1062" d="M127 0v993q253 88 414 88q78 -2 147.5 -23.5t127 -63t91 -109t33.5 -152.5v-733h-162v739q0 91 -71 141t-166 50q-129 0 -250 -47v-883h-164zM231 1255q17 86 74 139.5t125 53.5q46 0 89 -25t75 -50t51 -25q21 0 44 16.5t34 56.5l121 -43q-25 -96 -74.5 -140t-112.5 -44 q-39 0 -78.5 25.5t-77 51t-71.5 25.5q-23 0 -47.5 -24t-34.5 -60z" />
<glyph unicode="&#xf2;" horiz-adv-x="1013" d="M96 334v393q0 69 23 127t63 99t92.5 70t112 43t121.5 15q62 -1 120.5 -15t110.5 -43t91 -70t62 -99t23 -127v-393q0 -86 -34.5 -155t-93 -111t-130 -64.5t-149.5 -23.5q-63 1 -122 14.5t-111.5 42.5t-92.5 70t-63 99.5t-23 127.5zM260 332q0 -93 75 -145t173 -52 q96 0 170 52t74 145v399q0 93 -74 144t-170 51q-99 0 -173.5 -51t-74.5 -144v-399zM264 1456h209l168 -274h-158z" />
<glyph unicode="&#xf3;" horiz-adv-x="1013" d="M96 334v393q0 69 23 127t63 99t92.5 70t112 43t121.5 15q62 -1 120.5 -15t110.5 -43t91 -70t62 -99t23 -127v-393q0 -86 -34.5 -155t-93 -111t-130 -64.5t-149.5 -23.5q-63 1 -122 14.5t-111.5 42.5t-92.5 70t-63 99.5t-23 127.5zM260 332q0 -93 75 -145t173 -52 q96 0 170 52t74 145v399q0 93 -74 144t-170 51q-99 0 -173.5 -51t-74.5 -144v-399zM379 1180l174 272h203l-209 -272h-168z" />
<glyph unicode="&#xf4;" horiz-adv-x="1013" d="M96 334v393q0 69 23 127t63 99t92.5 70t112 43t121.5 15q62 -1 120.5 -15t110.5 -43t91 -70t62 -99t23 -127v-393q0 -86 -34.5 -155t-93 -111t-130 -64.5t-149.5 -23.5q-63 1 -122 14.5t-111.5 42.5t-92.5 70t-63 99.5t-23 127.5zM176 1180l260 272h152l239 -272h-194 l-125 141l-131 -141h-201zM260 332q0 -93 75 -145t173 -52q96 0 170 52t74 145v399q0 93 -74 144t-170 51q-99 0 -173.5 -51t-74.5 -144v-399z" />
<glyph unicode="&#xf5;" horiz-adv-x="1013" d="M96 334v393q0 69 23 127t63 99t92.5 70t112 43t121.5 15q62 -1 120.5 -15t110.5 -43t91 -70t62 -99t23 -127v-393q0 -86 -34.5 -155t-93 -111t-130 -64.5t-149.5 -23.5q-63 1 -122 14.5t-111.5 42.5t-92.5 70t-63 99.5t-23 127.5zM203 1255q17 86 73.5 139.5t124.5 53.5 q46 0 89 -25t75 -50t51 -25q21 0 44 16.5t34 56.5l121 -43q-25 -96 -74.5 -140t-111.5 -44q-39 0 -78.5 25.5t-77.5 51t-72 25.5q-23 0 -47.5 -24t-34.5 -60zM260 332q0 -93 75 -145t173 -52q96 0 170 52t74 145v399q0 93 -74 144t-170 51q-99 0 -173.5 -51t-74.5 -144v-399 z" />
<glyph unicode="&#xf6;" horiz-adv-x="1013" d="M96 334v393q0 69 23 127t63 99t92.5 70t112 43t121.5 15q62 -1 120.5 -15t110.5 -43t91 -70t62 -99t23 -127v-393q0 -86 -34.5 -155t-93 -111t-130 -64.5t-149.5 -23.5q-63 1 -122 14.5t-111.5 42.5t-92.5 70t-63 99.5t-23 127.5zM217 1315q0 45 31.5 76.5t75.5 31.5 t75 -31t31 -77q0 -44 -31 -75.5t-75 -31.5t-75.5 31.5t-31.5 75.5zM260 332q0 -93 75 -145t173 -52q96 0 170 52t74 145v399q0 93 -74 144t-170 51q-99 0 -173.5 -51t-74.5 -144v-399zM588 1315q0 46 30 77t76 31q44 0 75.5 -31.5t31.5 -76.5q0 -44 -31.5 -75.5t-75.5 -31.5 q-45 0 -75.5 31t-30.5 76z" />
<glyph unicode="&#xf7;" horiz-adv-x="1083" d="M94 586v170h897v-170h-897zM416 981q0 52 37 88.5t90 36.5t90 -36.5t37 -88.5q0 -53 -37 -90t-90 -37t-90 37t-37 90zM426 360q0 53 37 88t90 37q53 0 90 -36.5t37 -88.5q0 -54 -37 -90.5t-90 -36.5t-90 36.5t-37 90.5z" />
<glyph unicode="&#xf8;" horiz-adv-x="1013" d="M96 334v393q0 69 23 127t63 99t92.5 70t112 43t121.5 15q78 0 151 -24l58 141l110 -41l-61 -149q149 -100 149 -281v-393q0 -86 -34.5 -155t-93 -111t-130 -64.5t-149.5 -23.5q-78 0 -152 22l-65 -158l-105 45l66 160q-156 100 -156 285zM260 336q0 -75 55 -127l283 696 q-47 13 -90 13q-63 0 -117.5 -19t-92.5 -64t-38 -108v-391zM418 156q47 -13 90 -13q96 0 170 50t74 143v391q0 70 -50 123z" />
<glyph unicode="&#xf9;" horiz-adv-x="1064" d="M123 332v729h164v-731q0 -88 71 -140.5t166 -54.5q149 0 250 35v891h164v-1004q-219 -77 -414 -77q-77 1 -147.5 23.5t-128 65t-91.5 111t-34 152.5zM256 1436h219l168 -275h-168z" />
<glyph unicode="&#xfa;" horiz-adv-x="1064" d="M123 332v729h164v-731q0 -88 71 -140.5t166 -54.5q149 0 250 35v891h164v-1004q-219 -77 -414 -77q-77 1 -147.5 23.5t-128 65t-91.5 111t-34 152.5zM410 1159l174 273h215l-209 -273h-180z" />
<glyph unicode="&#xfb;" horiz-adv-x="1064" d="M123 332v729h164v-731q0 -88 71 -140.5t166 -54.5q149 0 250 35v891h164v-1004q-219 -77 -414 -77q-77 1 -147.5 23.5t-128 65t-91.5 111t-34 152.5zM209 1159l260 273h152l239 -273h-194l-125 141l-131 -141h-201z" />
<glyph unicode="&#xfc;" horiz-adv-x="1064" d="M123 332v729h164v-731q0 -88 71 -140.5t166 -54.5q149 0 250 35v891h164v-1004q-219 -77 -414 -77q-77 1 -147.5 23.5t-128 65t-91.5 111t-34 152.5zM240 1294q0 46 31 77.5t75 31.5t75.5 -31.5t31.5 -77.5q0 -44 -31.5 -75t-75.5 -31t-75 31t-31 75zM610 1294 q0 46 30.5 77.5t76.5 31.5q44 0 75 -31.5t31 -77.5q0 -44 -31 -75t-75 -31q-45 0 -76 31t-31 75z" />
<glyph unicode="&#xfd;" horiz-adv-x="1091" d="M123 344v717h168v-721q0 -92 74.5 -146.5t173.5 -56.5q128 0 258 51v873h164v-1098q0 -89 -34.5 -159t-93.5 -112.5t-132 -64.5t-154 -22q-107 0 -211 43t-174 121l112 102q41 -51 113.5 -79t147.5 -28q70 0 126.5 18t96 64.5t39.5 116.5v82q-90 -61 -254 -65 q-80 -1 -155 23t-134 69t-95 116t-36 156zM422 1159l174 273h215l-209 -273h-180z" />
<glyph unicode="&#xfe;" horiz-adv-x="1048" d="M131 -381v1808h164v-372q130 26 252 26q78 -1 149 -23t128.5 -64t91.5 -110.5t34 -154.5v-395q0 -83 -34.5 -151.5t-92.5 -112.5t-131 -67.5t-151 -22.5q-127 3 -246 47v-408h-164zM295 176q118 -47 250 -47q99 2 170 51t71 139v426q0 89 -69.5 137t-169.5 48 q-165 0 -252 -25v-729z" />
<glyph unicode="&#xff;" horiz-adv-x="1091" d="M123 344v717h168v-721q0 -92 74.5 -146.5t173.5 -56.5q128 0 258 51v873h164v-1098q0 -89 -34.5 -159t-93.5 -112.5t-132 -64.5t-154 -22q-107 0 -211 43t-174 121l112 102q41 -51 113.5 -79t147.5 -28q70 0 126.5 18t96 64.5t39.5 116.5v82q-90 -61 -254 -65 q-80 -1 -155 23t-134 69t-95 116t-36 156zM252 1294q0 46 31 77.5t75 31.5t75.5 -31.5t31.5 -77.5q0 -44 -31.5 -75t-75.5 -31t-75 31t-31 75zM623 1294q0 46 30.5 77.5t75.5 31.5q44 0 75.5 -31.5t31.5 -77.5q0 -44 -31.5 -75t-75.5 -31q-45 0 -75.5 30.5t-30.5 75.5z" />
<glyph unicode="&#x152;" horiz-adv-x="1845" d="M111 436v578q0 110 45.5 198t123.5 143.5t176 84.5t208 30q69 0 143.5 -24t103.5 -60v64h846v-172h-676v-471h615v-170h-615v-465h676v-172h-846v72q-31 -50 -102.5 -72t-153.5 -20q-109 2 -206 31.5t-173 85t-120.5 143t-44.5 196.5zM281 436q0 -137 111 -210.5 t274 -73.5q138 0 245 49v1054q-104 46 -245 43q-106 0 -190.5 -28.5t-139.5 -94.5t-55 -161v-578z" />
<glyph unicode="&#x153;" horiz-adv-x="1646" d="M98 338v389q0 85 34.5 154t92.5 111t129.5 64.5t149.5 22.5q104 0 193.5 -46t129.5 -136q47 95 135.5 138.5t192.5 45.5q77 -1 148.5 -23.5t130.5 -64.5t94 -110.5t35 -153.5v-270h-654v-121q0 -62 38 -107t92 -64.5t116 -19.5q77 0 144 37.5t98 106.5l147 -72 q-53 -113 -159 -173t-230 -62q-101 0 -189 37t-139 112q-95 -143 -323 -147q-78 1 -149.5 23t-129.5 64t-92.5 110.5t-34.5 154.5zM260 338q0 -62 37.5 -106t91 -63t115.5 -19q61 0 114.5 19.5t90 63.5t36.5 105v391q0 90 -72.5 138t-168.5 48q-62 0 -115.5 -19t-91 -63 t-37.5 -106v-389zM909 598h490v133q0 90 -72.5 139.5t-171.5 49.5t-172.5 -50t-73.5 -143v-129z" />
<glyph unicode="&#x178;" horiz-adv-x="1185" d="M2 1450h199l393 -702l389 702h201l-506 -885v-565h-172v565zM303 1683q0 46 31.5 77.5t75.5 31.5t75 -31.5t31 -77.5q0 -44 -31 -75t-75 -31t-75.5 31t-31.5 75zM674 1683q0 46 30.5 77.5t75.5 31.5q44 0 75.5 -31.5t31.5 -77.5q0 -44 -31.5 -75t-75.5 -31 q-45 0 -75.5 30.5t-30.5 75.5z" />
<glyph unicode="&#x2c6;" horiz-adv-x="536" d="M-70 1548l260 273h152l240 -273h-195l-125 142l-131 -142h-201z" />
<glyph unicode="&#x2dc;" horiz-adv-x="555" d="M-31 1624q17 86 74 139.5t125 53.5q46 0 89 -25.5t75 -50.5t51 -25q21 0 44 17t34 57l121 -43q-25 -96 -74.5 -140t-112.5 -44q-39 0 -78.5 25.5t-77 51t-71.5 25.5q-23 0 -47.5 -24t-34.5 -60z" />
<glyph unicode="&#x2000;" horiz-adv-x="925" />
<glyph unicode="&#x2001;" horiz-adv-x="1851" />
<glyph unicode="&#x2002;" horiz-adv-x="925" />
<glyph unicode="&#x2003;" horiz-adv-x="1851" />
<glyph unicode="&#x2004;" horiz-adv-x="617" />
<glyph unicode="&#x2005;" horiz-adv-x="462" />
<glyph unicode="&#x2006;" horiz-adv-x="308" />
<glyph unicode="&#x2007;" horiz-adv-x="308" />
<glyph unicode="&#x2008;" horiz-adv-x="231" />
<glyph unicode="&#x2009;" horiz-adv-x="370" />
<glyph unicode="&#x200a;" horiz-adv-x="102" />
<glyph unicode="&#x2010;" horiz-adv-x="772" d="M119 526v168h534v-168h-534z" />
<glyph unicode="&#x2011;" horiz-adv-x="772" d="M119 526v168h534v-168h-534z" />
<glyph unicode="&#x2012;" horiz-adv-x="772" d="M119 526v168h534v-168h-534z" />
<glyph unicode="&#x2013;" horiz-adv-x="1193" d="M119 526v166h956v-166h-956z" />
<glyph unicode="&#x2014;" horiz-adv-x="2029" d="M117 526v166h1796v-166h-1796z" />
<glyph unicode="&#x2018;" horiz-adv-x="489" d="M84 932l166 498h172l-141 -498h-197z" />
<glyph unicode="&#x2019;" horiz-adv-x="483" d="M86 932l139 498h199l-168 -498h-170z" />
<glyph unicode="&#x201a;" horiz-adv-x="458" d="M12 -268l138 469h200l-170 -469h-168z" />
<glyph unicode="&#x201c;" horiz-adv-x="813" d="M82 932l168 498h168l-137 -498h-199zM410 932l168 498h167l-137 -498h-198z" />
<glyph unicode="&#x201d;" horiz-adv-x="796" d="M84 932l137 498h199l-168 -498h-168zM401 932l138 498h198l-166 -498h-170z" />
<glyph unicode="&#x201e;" horiz-adv-x="780" d="M12 -268l138 461h200l-170 -461h-168zM330 -268l139 461h199l-168 -461h-170z" />
<glyph unicode="&#x2022;" horiz-adv-x="870" d="M127 715q0 129 90 219t219 90q128 0 217.5 -90t89.5 -219q0 -128 -90 -218.5t-217 -90.5q-129 0 -219 90.5t-90 218.5z" />
<glyph unicode="&#x2026;" horiz-adv-x="1247" d="M98 109q0 51 35 85.5t86 34.5t86 -34.5t35 -85.5t-35 -86t-86 -35t-86 35t-35 86zM504 109q0 51 35 85.5t86 34.5t85.5 -34.5t34.5 -85.5t-34.5 -86t-85.5 -35t-86 35t-35 86zM909 109q0 51 34 85.5t85 34.5q52 0 86.5 -34.5t34.5 -85.5t-34.5 -86t-86.5 -35 q-51 0 -85 35t-34 86z" />
<glyph unicode="&#x202f;" horiz-adv-x="370" />
<glyph unicode="&#x2039;" horiz-adv-x="589" d="M68 600l290 432l142 -86l-238 -346q19 -28 107 -154.5t131 -191.5l-142 -84z" />
<glyph unicode="&#x203a;" horiz-adv-x="589" d="M90 252l238 348q-19 28 -107 154.5t-131 191.5l143 86l289 -432l-289 -430z" />
<glyph unicode="&#x205f;" horiz-adv-x="462" />
<glyph unicode="&#x20ac;" horiz-adv-x="1251" d="M57 545l31 139h107v88h-129l28 141h101v107q0 107 42.5 194.5t113.5 142.5t159.5 84t183.5 29q149 0 280 -75.5t197 -214.5l-153 -78q-47 95 -136 145.5t-188 50.5q-135 0 -234.5 -74.5t-99.5 -203.5v-107h533l-29 -141h-504v-88h537l-29 -139h-508v-117q0 -67 28 -121.5 t75 -88t105 -51t122 -17.5q102 0 191 50t137 144l153 -74q-68 -141 -198.5 -215.5t-282.5 -74.5q-96 0 -183.5 28.5t-157.5 82.5t-112 141.5t-42 195.5v117h-138z" />
<glyph unicode="&#x2122;" horiz-adv-x="1714" d="M61 1300v150h660v-150h-252v-661h-156v661h-252zM799 639v811h162l229 -500q32 71 111 241.5t118 258.5h162v-811h-156l7 491l-183 -401h-121l-178 391l4 -481h-155z" />
<glyph unicode="&#x25fc;" horiz-adv-x="1064" d="M0 0v1065h1065v-1065h-1065z" />
</font>
</defs>
</svg>
